<?xml version="1.0" standalone="no"?>
<!DOCTYPE svg PUBLIC "-//W3C//DTD SVG 1.1//EN" "http://www.w3.org/Graphics/SVG/1.1/DTD/svg11.dtd" >
<svg xmlns="http://www.w3.org/2000/svg">
<metadata>
<json>
<![CDATA[
{
	"fontFamily": "xeicon",
	"majorVersion": 2,
	"minorVersion": 1,
	"fontURL": "http://xpressengine.github.io/XEIcon/",
	"copyright": "(C) NAVER http://www.navercorp.com",
	"designerURL": "https://www.facebook.com/juna.junhalee",
	"license": "SIL OFL 1.1, MIT License, CCL 4.0",
	"licenseURL": "https://github.com/xpressengine/XEIcon",
	"description": "Beautiful transformable iconic font made for the web.\nFont generated by IcoMoon.",
	"designer": "Junha Lee",
	"version": "Version 2.1",
	"fontId": "xeicon",
	"psName": "xeicon",
	"subFamily": "Regular",
	"fullName": "xeicon"
}
]]>
</json>
</metadata>
<defs>
<font id="xeicon" horiz-adv-x="1024">
<font-face units-per-em="1024" ascent="942.08" descent="-81.92" />
<missing-glyph horiz-adv-x="1024" />
<glyph unicode="&#x20;" horiz-adv-x="512" d="" />
<glyph unicode="&#xe900;" glyph-name="home" data-tags="action, home, house" d="M511.893 810.667l-426.56-340.757 53.461-66.752 31.872 25.493v-385.984h256v298.667h170.667v-298.667h256v385.984l31.893-25.493 53.44 66.795z" />
<glyph unicode="&#xe901;" glyph-name="chart-bar" data-tags="media, chart-bar" d="M127.915 42.667v554.667h170.667v-554.667h-170.667zM426.581 42.667v810.667h170.667v-810.667h-170.667zM725.248 341.334h170.667v-298.667h-170.667v298.667z" />
<glyph unicode="&#xe902;" glyph-name="home-o" data-tags="action, home-o, home, house" d="M511.893 810.667l-426.56-340.736 53.461-66.773 31.872 25.493v-385.984h298.667v256h85.333v-256h298.667v385.984l31.893-25.493 53.44 66.816-426.773 340.693zM768 128.022h-127.509v256.128h-257.173v-256.128h-127.317v368.832l255.915 204.587 256.085-204.608v-368.811z" />
<glyph unicode="&#xe903;" glyph-name="apps" data-tags="action, apps, menu, control" d="M170.581 597.334h170.667v170.667h-170.667v-170.667zM170.581 341.334h170.667v170.667h-170.667v-170.667zM426.667 341.334h170.667v170.667h-170.667v-170.667zM682.581 341.334h170.667v170.667h-170.667v-170.667zM426.667 597.334h170.667v170.667h-170.667v-170.667zM682.581 768v-170.667h170.667v170.667h-170.667zM170.581 85.334h170.667v170.667h-170.667v-170.667zM426.667 85.334h170.667v170.667h-170.667v-170.667zM682.581 85.334h170.667v170.667h-170.667v-170.667z" />
<glyph unicode="&#xe904;" glyph-name="arrow-bottom" data-tags="action, arrow-bottom, bottom-button, pointer" d="M768 473.707l-60.757 59.904-152.576-155.243v432.299h-85.291v-431.936l-152.491 155.947-60.885-59.733 255.957-261.611zM170.667 128h682.667v-85.333h-682.667v85.333z" />
<glyph unicode="&#xe905;" glyph-name="arrow-down" data-tags="action, arrow-down, downward, pointer" d="M554.667 810.667v-604.544l238.336 238.379 60.331-60.331-341.461-341.504-341.205 341.248 60.309 60.331 238.357-238.357v604.779z" />
<glyph unicode="&#xe906;" glyph-name="arrow-left" data-tags="action, arrow-left, back, before, pointer" d="M896 469.334h-604.544l238.379 238.336-60.331 60.331-341.504-341.461 341.248-341.205 60.331 60.331-238.357 238.336h604.779z" />
<glyph unicode="&#xe907;" glyph-name="arrow-right" data-tags="action, arrow-right, forward, next, pointer" d="M128 469.334h604.523l-238.357 238.336 60.331 60.331 341.504-341.461-341.248-341.205-60.331 60.331 238.357 238.336h-604.779z" />
<glyph unicode="&#xe908;" glyph-name="long-arrow-left" data-tags="action, long-arrow-left, backspace, before, pointer" d="M938.667 469.334h-688.064l159.915 153.003-60.331 60.331-264.853-256 264.853-256 60.331 60.331-159.915 153.003h688.064z" />
<glyph unicode="&#xe909;" glyph-name="long-arrow-up" data-tags="action, long-arrow-up, upward, pointer" d="M768 597.334l-256 256-256-256 60.331-60.331 153.003 153.003v-690.005h85.333v690.005l153.003-153.003z" />
<glyph unicode="&#xe90a;" glyph-name="long-arrow-down" data-tags="action, long-arrow-down, downward, pointer" d="M707.669 316.331l-153.003-153.003v690.005h-85.333v-690.005l-153.003 153.003-60.331-60.331 256-256 256 256z" />
<glyph unicode="&#xe90b;" glyph-name="long-arrow-right" data-tags="action, long-arrow-right, forward, next, pointer" d="M673.813 640l-60.331-60.331 159.915-153.003h-688.064v-85.333h688.064l-159.915-153.003 60.331-60.331 264.853 256z" />
<glyph unicode="&#xe90c;" glyph-name="arrows" data-tags="action, arrows, move, drag, handle, control" d="M938.667 426.667l-170.667 170.667v-128h-213.333v213.333h128l-170.667 170.667-170.667-170.667h128v-213.333h-213.333v128l-170.667-170.667 170.667-170.667v128h213.333v-213.333h-128l170.667-170.667 170.667 170.667h-128v213.333h213.333v-128z" />
<glyph unicode="&#xe90d;" glyph-name="arrows-alt" data-tags="action, arrows-alt, expand, zoom, control" d="M776.832 631.168l76.501-76.501v213.333h-213.333l76.501-76.501-204.501-204.501-204.501 204.501 76.501 76.501h-213.333v-213.333l76.501 76.501 204.501-204.501-204.501-204.501-76.501 76.501v-213.333h213.333l-76.501 76.501 204.501 204.501 204.501-204.501-76.501-76.501h213.333v213.333l-76.501-76.501-204.501 204.501z" />
<glyph unicode="&#xe90e;" glyph-name="arrows-h" data-tags="action, arrows-h, switch, control" d="M938.667 427.179l-213.333 170.155v-128.341h-426.667v128.341l-213.333-171.179 213.333-170.155v127.765h426.667v-127.765z" />
<glyph unicode="&#xe90f;" glyph-name="arrows-v" data-tags="action, arrows-v, control" d="M554.603 640h128.064l-171.179 213.333-170.155-213.333h128.064v-426.667h-128.064l170.667-213.333 170.667 213.333h-128.064z" />
<glyph unicode="&#xe910;" glyph-name="expand" data-tags="action, expand, zoom-in, control" d="M426.667 401.664l-200.832-200.832-97.835 97.835v-256h256l-97.835 97.835 200.832 200.832zM896 810.667h-256l97.835-97.835-200.832-200.832 60.331-60.331 200.832 200.832 97.835-97.835z" />
<glyph unicode="&#xe911;" glyph-name="compress" data-tags="action, compress, zoom-out, control" d="M311.168 243.499l-183.168-183.168 60.331-60.331 183.168 183.168 97.835-97.835v256h-256zM896 707.67l-60.331 60.331-183.168-183.168-97.835 97.835v-256h256l-97.835 97.835z" />
<glyph unicode="&#xe912;" glyph-name="arrow-top" data-tags="action, arrow-top, top-button, pointer" d="M469.333 474.966v-432.299h85.291v431.936l152.491-155.947 60.885 59.733-255.957 261.611-256.043-260.373 60.757-59.904zM170.667 810.667h682.667v-85.333h-682.667v85.333z" />
<glyph unicode="&#xe913;" glyph-name="plus" data-tags="content, plus, add" d="M896 469.334h-341.333v341.333h-85.333v-341.333h-341.333v-85.333h341.333v-341.333h85.333v341.333h341.333z" />
<glyph unicode="&#xe914;" glyph-name="plus-min" data-tags="content, plus-min, add" d="M768 469.334h-213.333v213.333h-85.333v-213.333h-213.333v-85.333h213.333v-213.333h85.333v213.333h213.333z" />
<glyph unicode="&#xe915;" glyph-name="arrow-up" data-tags="action, arrow-up, upward, pointer" d="M554.667 42.667v604.544l238.336-238.379 60.331 60.331-341.461 341.504-341.205-341.248 60.331-60.331 238.336 238.357v-604.779z" />
<glyph unicode="&#xe916;" glyph-name="plus-circle" data-tags="content, plus-circle, add" d="M512 853.334c-235.648 0-426.667-191.019-426.667-426.667s191.019-426.667 426.667-426.667 426.667 191.019 426.667 426.667-191.019 426.667-426.667 426.667zM725.333 384h-170.667v-170.667h-85.333v170.667h-170.667v85.333h170.667v170.667h85.333v-170.667h170.667v-85.333z" />
<glyph unicode="&#xe917;" glyph-name="plus-circle-o" data-tags="content, plus-circle-o, add" d="M554.667 640h-85.333v-170.667h-170.667v-85.333h170.667v-170.667h85.333v170.667h170.667v85.333h-170.667zM512 853.334c-235.264 0-426.667-191.403-426.667-426.667s191.403-426.667 426.667-426.667 426.667 191.403 426.667 426.667-191.403 426.667-426.667 426.667zM512 85.334c-188.203 0-341.333 153.131-341.333 341.333s153.131 341.333 341.333 341.333 341.333-153.131 341.333-341.333-153.131-341.333-341.333-341.333z" />
<glyph unicode="&#xe918;" glyph-name="plus-square" data-tags="content, plus-square, add" d="M853.333 810.667h-682.667c-23.552 0-42.667-19.115-42.667-42.667v-682.667c0-23.552 19.115-42.667 42.667-42.667h682.667c23.552 0 42.667 19.115 42.667 42.667v682.667c0 23.552-19.115 42.667-42.667 42.667zM725.333 384h-170.667v-170.667h-85.333v170.667h-170.667v85.333h170.667v170.667h85.333v-170.667h170.667v-85.333z" />
<glyph unicode="&#xe919;" glyph-name="plus-square-o" data-tags="content, plus-square-o, add" d="M554.667 640h-85.333v-170.667h-170.667v-85.333h170.667v-170.667h85.333v170.667h170.667v85.333h-170.667zM853.333 42.667h-682.667c-23.552 0-42.667 19.115-42.667 42.667v682.667c0 23.552 19.115 42.667 42.667 42.667h682.667c23.552 0 42.667-19.115 42.667-42.667v-682.667c0-23.552-19.115-42.667-42.667-42.667zM213.333 128h597.333v597.333h-597.333v-597.333z" />
<glyph unicode="&#xe91a;" glyph-name="minus" data-tags="content, minus, remove, minify, clear" d="M128 469.334h768v-85.333h-768v85.333z" />
<glyph unicode="&#xe91b;" glyph-name="minus-min" data-tags="content, minus-min, remove, minify, clear" d="M256 469.334h512v-85.333h-512v85.333z" />
<glyph unicode="&#xe91c;" glyph-name="bars" data-tags="action, bars, menu, hamburger, control" d="M128 128h768v85.333h-768v-85.333zM128 384h768v85.333h-768v-85.333zM128 725.334v-85.333h768v85.333h-768z" />
<glyph unicode="&#xe91d;" glyph-name="minus-circle" data-tags="content, minus-circle, remove, minify, clear" d="M512 853.334c-235.648 0-426.667-191.019-426.667-426.667s191.019-426.667 426.667-426.667 426.667 191.019 426.667 426.667-191.019 426.667-426.667 426.667zM725.333 384h-426.667v85.333h426.667v-85.333z" />
<glyph unicode="&#xe91e;" glyph-name="minus-circle-o" data-tags="content, minus-circle-o, remove, minify, clear" d="M298.667 469.334h426.667v-85.333h-426.667v85.333zM512 853.334c-235.264 0-426.667-191.403-426.667-426.667s191.403-426.667 426.667-426.667 426.667 191.403 426.667 426.667-191.403 426.667-426.667 426.667zM512 85.334c-188.203 0-341.333 153.131-341.333 341.333s153.131 341.333 341.333 341.333 341.333-153.131 341.333-341.333-153.131-341.333-341.333-341.333z" />
<glyph unicode="&#xe91f;" glyph-name="minus-square" data-tags="content, minus-square, remove, minify, clear" d="M853.333 810.667h-682.667c-23.552 0-42.667-19.115-42.667-42.667v-682.667c0-23.552 19.115-42.667 42.667-42.667h682.667c23.552 0 42.667 19.115 42.667 42.667v682.667c0 23.552-19.115 42.667-42.667 42.667zM725.333 384h-426.667v85.333h426.667v-85.333z" />
<glyph unicode="&#xe920;" glyph-name="minus-square-o" data-tags="content, minus-square-o, remove, minify, clear" d="M298.667 469.334h426.667v-85.333h-426.667v85.333zM853.333 42.667h-682.667c-23.552 0-42.667 19.115-42.667 42.667v682.667c0 23.552 19.115 42.667 42.667 42.667h682.667c23.552 0 42.667-19.115 42.667-42.667v-682.667c0-23.552-19.115-42.667-42.667-42.667zM213.333 128h597.333v597.333h-597.333v-597.333z" />
<glyph unicode="&#xe921;" glyph-name="close" data-tags="content, close, times, clear" d="M896 749.76l-60.928 60.907-323.072-323.093-323.072 323.093-60.928-60.907 323.093-323.093-323.093-323.093 60.928-60.907 323.072 323.093 323.072-323.093 60.928 60.907-323.093 323.093z" />
<glyph unicode="&#xe922;" glyph-name="close-min" data-tags="content, close-min, times, clear" d="M725.333 579.094l-60.949 60.907-152.448-152.427-152.341 152.427-60.928-60.907 152.341-152.427-150.869-152.427 60.949-60.907 150.848 152.427 152.448-152.427 60.949 60.907-152.448 152.427z" />
<glyph unicode="&#xe923;" glyph-name="catched" data-tags="action, catched, setting" d="M512 682.667c43.093 0 84.053-10.667 119.467-29.867l62.293 62.293c-52.48 33.28-114.773 52.907-181.76 52.907-188.587 0-341.333-152.747-341.333-341.333h-128l170.667-170.667 170.667 170.667h-128c0 141.227 114.773 256 256 256zM512 85.334c188.587 0 341.333 152.747 341.333 341.333h128l-170.667 170.667-170.667-170.667h128c0-141.227-114.773-256-256-256-43.093 0-83.627 11.093-119.467 29.867l-62.293-62.293c52.48-33.28 114.773-52.907 181.76-52.907z" />
<glyph unicode="&#xe924;" glyph-name="close-circle" data-tags="content, close-circle, times, clear" d="M512 853.334c-235.648 0-426.667-191.019-426.667-426.667s191.019-426.667 426.667-426.667c235.648 0 426.667 191.019 426.667 426.667s-191.019 426.667-426.667 426.667zM711.445 294.251l-67.051-67.029-132.395 132.395-132.416-132.395-67.051 67.029 132.395 132.416-132.395 132.416 67.051 67.051 132.416-132.416 132.395 132.416 67.051-67.051-132.416-132.416 132.416-132.416z" />
<glyph unicode="&#xe925;" glyph-name="close-circle-o" data-tags="content, close-circle-o, times, clear" d="M631.168 606.166l-119.168-119.168-119.168 119.168-60.331-60.331 119.168-119.168-119.168-119.168 60.331-60.331 119.168 119.168 119.168-119.168 60.331 60.331-119.168 119.168 119.168 119.168zM512 853.334c-235.264 0-426.667-191.403-426.667-426.667s191.403-426.667 426.667-426.667 426.667 191.403 426.667 426.667-191.403 426.667-426.667 426.667zM512 85.334c-188.203 0-341.333 153.131-341.333 341.333s153.131 341.333 341.333 341.333 341.333-153.131 341.333-341.333-153.131-341.333-341.333-341.333z" />
<glyph unicode="&#xe926;" glyph-name="close-square" data-tags="content, close-square, times, clear" d="M853.333 810.667h-682.667c-23.552 0-42.667-19.115-42.667-42.667v-682.667c0-23.552 19.115-42.667 42.667-42.667h682.667c23.552 0 42.667 19.115 42.667 42.667v682.667c0 23.552-19.115 42.667-42.667 42.667zM691.499 307.499l-60.331-60.331-119.168 119.168-119.168-119.168-60.331 60.331 119.168 119.168-119.168 119.168 60.331 60.331 119.168-119.168 119.168 119.168 60.331-60.331-119.168-119.168 119.168-119.168z" />
<glyph unicode="&#xe927;" glyph-name="close-square-o" data-tags="content, close-square-o, times, clear" d="M631.168 606.166l-119.168-119.168-119.168 119.168-60.331-60.331 119.168-119.168-119.168-119.168 60.331-60.331 119.168 119.168 119.168-119.168 60.331 60.331-119.168 119.168 119.168 119.168zM853.333 42.667h-682.667c-23.552 0-42.667 19.115-42.667 42.667v682.667c0 23.552 19.115 42.667 42.667 42.667h682.667c23.552 0 42.667-19.115 42.667-42.667v-682.667c0-23.552-19.115-42.667-42.667-42.667zM213.333 128h597.333v597.333h-597.333v-597.333z" />
<glyph unicode="&#xe928;" glyph-name="check" data-tags="content, check, form" d="M384 128l-298.667 299.264 64 63.957 234.667-234.517 490.667 468.629 64-63.552z" />
<glyph unicode="&#xe929;" glyph-name="check-min" data-tags="content, check-min, form" d="M426.667 213.334l-213.333 213.333 64 64 149.333-148.544 320 297.877 64-63.595z" />
<glyph unicode="&#xe92a;" glyph-name="check-thin" data-tags="content, check-thin, form" d="M426.56 170.667l-298.56 255.232 27.648 32.491 268.544-229.675 441.621 453.952 30.187-30.144z" />
<glyph unicode="&#xe92b;" glyph-name="check-circle" data-tags="content, check-circle, form" d="M512 853.334c-235.648 0-426.667-191.019-426.667-426.667s191.019-426.667 426.667-426.667 426.667 191.019 426.667 426.667-191.019 426.667-426.667 426.667zM468.736 256l-170.069 170.667 60.565 60.117 110.699-110.869 196.053 197.419 59.349-61.333-256.597-256z" />
<glyph unicode="&#xe92c;" glyph-name="check-circle-o" data-tags="content, check-circle-o, form" d="M512 853.334c-235.264 0-426.667-191.403-426.667-426.667s191.403-426.667 426.667-426.667 426.667 191.403 426.667 426.667-191.403 426.667-426.667 426.667zM512 85.334c-188.203 0-341.333 153.131-341.333 341.333s153.131 341.333 341.333 341.333 341.333-153.131 341.333-341.333-153.131-341.333-341.333-341.333zM469.931 375.915l-110.699 110.869-60.565-60.117 170.069-170.667 256.597 256-59.349 61.333z" />
<glyph unicode="&#xe92d;" glyph-name="check-square" data-tags="content, check-square, form" d="M853.333 810.667h-682.667c-23.552 0-42.667-19.115-42.667-42.667v-682.667c0-23.552 19.115-42.667 42.667-42.667h682.667c23.552 0 42.667 19.115 42.667 42.667v682.667c0 23.552-19.115 42.667-42.667 42.667zM725.333 512l-256.597-256-170.069 170.667 60.565 60.117 110.699-110.869 196.053 197.419 59.349-61.333z" />
<glyph unicode="&#xe92e;" glyph-name="check-square-o" data-tags="content, check-square-o, form" d="M469.931 375.915l-110.699 110.869-60.565-60.117 170.069-170.667 256.597 256-59.349 61.333zM853.333 42.667h-682.667c-23.552 0-42.667 19.115-42.667 42.667v682.667c0 23.552 19.115 42.667 42.667 42.667h682.667c23.552 0 42.667-19.115 42.667-42.667v-682.667c0-23.552-19.115-42.667-42.667-42.667zM213.333 128h597.333v597.333h-597.333v-597.333z" />
<glyph unicode="&#xe92f;" glyph-name="caret-up" data-tags="action, caret-up, drop, pointer" d="M938.667 128l-426.667 597.333-426.667-597.333z" />
<glyph unicode="&#xe930;" glyph-name="caret-up-min" data-tags="action, caret-up-min, drop, pointer" d="M768 256l-256 341.333-256-341.333z" />
<glyph unicode="&#xe931;" glyph-name="caret-up-circle" data-tags="action, caret-up-circle, drop, pointer" d="M512 853.334c-235.648 0-426.667-191.019-426.667-426.667s191.019-426.667 426.667-426.667 426.667 191.019 426.667 426.667-191.019 426.667-426.667 426.667zM341.333 341.334l170.667 213.333 170.667-213.333h-341.333z" />
<glyph unicode="&#xe932;" glyph-name="caret-up-circle-o" data-tags="action, caret-up-circle-o, drop, pointer" d="M341.333 341.334l170.667 213.333 170.667-213.333zM512 768c188.203 0 341.333-153.109 341.333-341.333s-153.131-341.333-341.333-341.333-341.333 153.109-341.333 341.333 153.131 341.333 341.333 341.333zM512 853.334c-235.648 0-426.667-191.019-426.667-426.667s191.019-426.667 426.667-426.667 426.667 191.019 426.667 426.667-191.019 426.667-426.667 426.667v0z" />
<glyph unicode="&#xe933;" glyph-name="caret-up-square" data-tags="action, caret-up-square, drop, pointer" d="M853.333 810.667h-682.667c-23.552 0-42.667-19.115-42.667-42.667v-682.667c0-23.552 19.115-42.667 42.667-42.667h682.667c23.552 0 42.667 19.115 42.667 42.667v682.667c0 23.552-19.115 42.667-42.667 42.667zM682.667 341.334h-341.333l170.667 213.333 170.667-213.333z" />
<glyph unicode="&#xe934;" glyph-name="caret-up-square-o" data-tags="action, caret-up-square-o, drop, pointer" d="M341.333 341.334l170.667 213.333 170.667-213.333zM853.333 42.667h-682.667c-23.552 0-42.667 19.115-42.667 42.667v682.667c0 23.552 19.115 42.667 42.667 42.667h682.667c23.552 0 42.667-19.115 42.667-42.667v-682.667c0-23.552-19.115-42.667-42.667-42.667zM213.333 128h597.333v597.333h-597.333v-597.333z" />
<glyph unicode="&#xe935;" glyph-name="caret-down" data-tags="action, caret-down, drop, pointer" d="M85.333 725.334l426.667-597.333 426.667 597.333z" />
<glyph unicode="&#xe936;" glyph-name="caret-down-min" data-tags="action, caret-down-min, drop, pointer" d="M768 597.334l-256-341.333-256 341.333z" />
<glyph unicode="&#xe937;" glyph-name="caret-down-circle" data-tags="action, caret-down-circle, drop, pointer" d="M512 853.334c-235.648 0-426.667-191.019-426.667-426.667s191.019-426.667 426.667-426.667 426.667 191.019 426.667 426.667-191.019 426.667-426.667 426.667zM512 298.667l-170.667 213.333h341.333l-170.667-213.333z" />
<glyph unicode="&#xe938;" glyph-name="caret-down-circle-o" data-tags="action, caret-down-circle-o, drop, pointer" d="M682.667 512l-170.667-213.333-170.667 213.333zM512 768c188.203 0 341.333-153.109 341.333-341.333s-153.131-341.333-341.333-341.333-341.333 153.109-341.333 341.333 153.131 341.333 341.333 341.333zM512 853.334c-235.648 0-426.667-191.019-426.667-426.667s191.019-426.667 426.667-426.667 426.667 191.019 426.667 426.667-191.019 426.667-426.667 426.667v0z" />
<glyph unicode="&#xe939;" glyph-name="caret-down-square" data-tags="action, caret-down-square, drop, pointer" d="M853.333 810.667h-682.667c-23.552 0-42.667-19.115-42.667-42.667v-682.667c0-23.552 19.115-42.667 42.667-42.667h682.667c23.552 0 42.667 19.115 42.667 42.667v682.667c0 23.552-19.115 42.667-42.667 42.667zM682.667 512l-170.667-213.333-170.667 213.333h341.333z" />
<glyph unicode="&#xe93a;" glyph-name="caret-down-square-o" data-tags="action, caret-down-square-o, drop, pointer" d="M682.667 512l-170.667-213.333-170.667 213.333zM853.333 42.667h-682.667c-23.552 0-42.667 19.115-42.667 42.667v682.667c0 23.552 19.115 42.667 42.667 42.667h682.667c23.552 0 42.667-19.115 42.667-42.667v-682.667c0-23.552-19.115-42.667-42.667-42.667zM213.333 128h597.333v597.333h-597.333v-597.333z" />
<glyph unicode="&#xe93b;" glyph-name="angle-left" data-tags="action, angle-left, chevron, before, pointer" d="M768 791.552l-384-364.885 383.168-364.885-63.168-61.781-448 426.667 448.832 426.667z" />
<glyph unicode="&#xe93c;" glyph-name="angle-left-min" data-tags="action, angle-left-min, chevron, before, pointer" d="M682.667 213.419l-218.923 213.333 218.901 213.141-59.691 61.077-281.621-274.176 281.6-274.432z" />
<glyph unicode="&#xe93d;" glyph-name="angle-left-thin" data-tags="action, angle-left-thin, chevron, before, pointer" d="M724.16 73.771l-29.248-31.104-396.245 384 397.461 384 29.205-31.104-364.395-352.896z" />
<glyph unicode="&#xe93e;" glyph-name="angle-right" data-tags="action, angle-right, chevron, next, pointer" d="M256 61.782l384 364.885-383.168 364.885 63.168 61.781 448-426.667-448.832-426.667z" />
<glyph unicode="&#xe93f;" glyph-name="angle-right-min" data-tags="action, angle-right-min, chevron, next, pointer" d="M341.333 213.419l218.923 213.333-218.901 213.141 59.691 61.077 281.621-274.176-281.6-274.432z" />
<glyph unicode="&#xe940;" glyph-name="angle-right-thin" data-tags="action, angle-right-thin, chevron, next, pointer" d="M299.84 73.771l29.248-31.104 396.245 384-397.461 384-29.205-31.104 364.395-352.896z" />
<glyph unicode="&#xe941;" glyph-name="angle-down" data-tags="action, angle-down, collapse, expand, control" d="M147.115 682.667l364.885-341.333 364.907 340.501 61.76-63.168-426.667-405.333-426.667 406.165z" />
<glyph unicode="&#xe942;" glyph-name="angle-down-min" data-tags="action, angle-down-min, collapse, expand, control" d="M725.248 597.334l-213.333-218.923-213.141 218.901-61.077-59.712 274.197-281.6 274.411 281.579z" />
<glyph unicode="&#xe943;" glyph-name="angle-down-thin" data-tags="action, angle-down-thin, collapse, expand, control" d="M864.917 638.827l31.083-29.248-384-396.245-384 397.461 31.104 29.205 352.896-364.395z" />
<glyph unicode="&#xe944;" glyph-name="angle-up" data-tags="action, angle-up, collapse, expand-less, control" d="M876.885 213.334l-364.885 341.333-364.907-340.501-61.76 63.168 426.667 405.333 426.667-406.165z" />
<glyph unicode="&#xe945;" glyph-name="angle-up-min" data-tags="action, angle-up-min, collapse, expand-less, control" d="M298.752 256l213.333 218.923 213.141-218.901 61.077 59.712-274.197 281.6-274.411-281.579z" />
<glyph unicode="&#xe946;" glyph-name="angle-up-thin" data-tags="action, angle-up-thin, collapse, expand-less, control" d="M159.083 214.507l-31.083 29.248 384 396.245 384-397.461-31.104-29.205-352.896 364.395z" />
<glyph unicode="&#xe947;" glyph-name="compare-arrows" data-tags="action, compare-arrows, control" d="M426.667 384l170.667 170.667-170.667 170.667v-128h-341.333v-85.333h341.333zM597.333 341.334v128l-170.667-170.667 170.667-170.667v128h341.333v85.333z" />
<glyph unicode="&#xe948;" glyph-name="dashboard" data-tags="action, dashboard, tachometer, setting" d="M512 853.334c-235.648 0-426.667-191.019-426.667-426.667 0-109.632 41.707-209.301 109.675-284.864l151.637 151.637 61.333-61.333-148.672-148.672c60.011-44.267 131.776-73.515 210.027-81.28v424.512h85.333v-424.512c215.595 21.419 384 203.264 384 424.512 0 235.648-191.019 426.667-426.667 426.667zM298.667 384c-23.467 0-42.667 19.2-42.667 42.667s19.2 42.667 42.667 42.667c23.467 0 42.667-19.2 42.667-42.667s-19.2-42.667-42.667-42.667zM512 597.334c-23.467 0-42.667 19.2-42.667 42.667s19.2 42.667 42.667 42.667 42.667-19.2 42.667-42.667c0-23.467-19.2-42.667-42.667-42.667zM725.333 384c-23.467 0-42.667 19.2-42.667 42.667s19.2 42.667 42.667 42.667 42.667-19.2 42.667-42.667c0-23.467-19.2-42.667-42.667-42.667z" />
<glyph unicode="&#xe949;" glyph-name="ellipsis-v" data-tags="action, ellipsis-v, more, control" d="M597.333 426.667c0-47.128-38.205-85.333-85.333-85.333s-85.333 38.205-85.333 85.333c0 47.128 38.205 85.333 85.333 85.333s85.333-38.205 85.333-85.333zM597.333 128c0-47.128-38.205-85.333-85.333-85.333s-85.333 38.205-85.333 85.333c0 47.128 38.205 85.333 85.333 85.333s85.333-38.205 85.333-85.333zM597.333 725.334c0-47.128-38.205-85.333-85.333-85.333s-85.333 38.205-85.333 85.333c0 47.128 38.205 85.333 85.333 85.333s85.333-38.205 85.333-85.333z" />
<glyph unicode="&#xe94a;" glyph-name="ellipsis-h" data-tags="action, ellipsis-h, more, control" d="M597.333 426.667c0-47.128-38.205-85.333-85.333-85.333s-85.333 38.205-85.333 85.333c0 47.128 38.205 85.333 85.333 85.333s85.333-38.205 85.333-85.333zM896 426.667c0-47.128-38.205-85.333-85.333-85.333s-85.333 38.205-85.333 85.333c0 47.128 38.205 85.333 85.333 85.333s85.333-38.205 85.333-85.333zM298.667 426.667c0-47.128-38.205-85.333-85.333-85.333s-85.333 38.205-85.333 85.333c0 47.128 38.205 85.333 85.333 85.333s85.333-38.205 85.333-85.333z" />
<glyph unicode="&#xe94b;" glyph-name="scroll" data-tags="action, scroll, mouse-wheel, control" d="M512 853.334l-170.667-213.333h341.333zM512-0l170.667 213.333h-341.333zM597.333 426.667c0-47.128-38.205-85.333-85.333-85.333s-85.333 38.205-85.333 85.333c0 47.128 38.205 85.333 85.333 85.333s85.333-38.205 85.333-85.333z" />
<glyph unicode="&#xe94c;" glyph-name="power-off" data-tags="hardware, power-off, input" d="M725.013 703.446l-47.403-70.955c83.307-55.637 133.056-148.544 133.056-248.469 0-164.693-133.973-298.667-298.667-298.667s-298.667 133.973-298.667 298.667c0 99.947 49.749 192.832 133.056 248.469l-47.403 70.955c-107.072-71.531-170.987-190.933-170.987-319.445 0-211.733 172.267-384 384-384s384 172.267 384 384c0 128.491-63.915 247.915-170.987 319.445zM469.333 853.334h85.333v-426.667h-85.333v426.667z" />
<glyph unicode="&#xe94d;" glyph-name="alt" data-tags="hardware, alt, keyboard, input" d="M364.16 725.334h-236.16v-85.333h190.507l341.333-512h236.16v85.333h-190.507zM682.667 725.334h213.333v-85.333h-213.333v85.333z" />
<glyph unicode="&#xe94e;" glyph-name="command" data-tags="hardware, command, keyboard, input" d="M768 341.334h-85.333v170.667h85.333c94.101 0 170.667 76.565 170.667 170.667s-76.565 170.667-170.667 170.667-170.667-76.565-170.667-170.667v-85.333h-170.667v85.333c0 94.101-76.565 170.667-170.667 170.667s-170.667-76.565-170.667-170.667 76.565-170.667 170.667-170.667h85.333v-170.667h-85.333c-94.101 0-170.667-76.565-170.667-170.667s76.565-170.667 170.667-170.667 170.667 76.565 170.667 170.667v85.333h170.667v-85.333c0-94.101 76.565-170.667 170.667-170.667s170.667 76.565 170.667 170.667-76.565 170.667-170.667 170.667zM682.667 682.667c0 47.061 38.272 85.333 85.333 85.333s85.333-38.272 85.333-85.333-38.272-85.333-85.333-85.333h-85.333v85.333zM256 597.334c-47.061 0-85.333 38.272-85.333 85.333s38.272 85.333 85.333 85.333 85.333-38.272 85.333-85.333v-85.333h-85.333zM341.333 170.667c0-47.061-38.272-85.333-85.333-85.333s-85.333 38.272-85.333 85.333 38.272 85.333 85.333 85.333h85.333v-85.333zM426.667 341.334v170.667h170.667v-170.667h-170.667zM768 85.334c-47.061 0-85.333 38.272-85.333 85.333v85.333h85.333c47.061 0 85.333-38.272 85.333-85.333s-38.272-85.333-85.333-85.333z" />
<glyph unicode="&#xe94f;" glyph-name="esc" data-tags="hardware, esc, keyboard, input" d="M213.227 665.174l281.173-281.173 60.267 60.267-281.173 281.173h152.832v85.227h-298.325v-298.325h85.227zM533.333 810.667h-21.333v-85.333h21.333c176.448 0 320-143.552 320-320s-143.552-320-320-320-320 143.552-320 320v21.333h-85.333v-21.333c0-223.509 181.824-405.333 405.333-405.333s405.333 181.824 405.333 405.333-181.824 405.333-405.333 405.333z" />
<glyph unicode="&#xe950;" glyph-name="eye-o" data-tags="action, eye-o, redeye, control" d="M931.755 443.158c-5.547 13.269-139.179 324.843-419.584 324.843-280.363 0-414.336-311.531-419.883-324.8l-6.955-16.533 6.955-16.533c5.568-13.269 139.52-324.8 419.883-324.8 280.405 0 414.037 311.552 419.584 324.843l6.912 16.491-6.912 16.491zM512.171 170.667c-190.997 0-304.064 197.013-333.632 256.064 29.461 59.136 141.931 255.936 333.632 255.936 190.997 0 303.851-197.077 333.312-256.064-29.355-59.093-141.589-255.936-333.312-255.936zM512 597.334c-94.101 0-170.667-76.565-170.667-170.667s76.565-170.667 170.667-170.667 170.667 76.565 170.667 170.667-76.565 170.667-170.667 170.667zM512 341.334c-47.061 0-85.333 38.272-85.333 85.333s38.272 85.333 85.333 85.333 85.333-38.272 85.333-85.333-38.272-85.333-85.333-85.333z" />
<glyph unicode="&#xe951;" glyph-name="eye" data-tags="action, eye, red-eye, control" d="M512 512c-47.061 0-85.333-38.272-85.333-85.333s38.272-85.333 85.333-85.333 85.333 38.272 85.333 85.333-38.272 85.333-85.333 85.333zM931.755 443.158c-5.547 13.269-139.179 324.843-419.584 324.843-280.363 0-414.336-311.531-419.883-324.8l-6.955-16.533 6.955-16.533c5.568-13.269 139.52-324.8 419.883-324.8 280.405 0 414.037 311.552 419.584 324.843l6.912 16.491-6.912 16.491zM512 256c-94.101 0-170.667 76.565-170.667 170.667s76.565 170.667 170.667 170.667 170.667-76.565 170.667-170.667-76.544-170.667-170.667-170.667z" />
<glyph unicode="&#xe952;" glyph-name="eye-off-o" data-tags="action, eye-off-o, red-eye, control" d="M178.539 426.752c29.461 59.136 141.931 255.936 333.632 255.936 40.683 0 77.611-9.301 111.147-23.936l64.384 64.384c-50.389 27.115-108.736 44.885-175.531 44.885-280.384 0-414.336-311.531-419.904-324.8l-6.955-16.533 6.955-16.533c2.837-6.741 39.019-90.795 110.763-171.669l60.8 60.8c-43.84 50.219-72.448 101.845-85.291 127.467zM341.333 426.688c0-15.232 2.197-29.909 5.952-43.968l208.683 208.661c-14.059 3.776-28.757 5.952-43.968 5.952-94.101 0.021-170.667-76.523-170.667-170.645zM931.755 443.2c-3.179 7.616-48.853 113.707-140.245 202.581l104.469 104.491-60.373 60.373-110.336-110.336c0 0-0.021 0-0.043 0.021l-62.187-62.208c0 0 0.021-0.021 0.043-0.021l-64.555-64.555c0 0-0.043 0.021-0.043 0.021l-64.704-64.704c0.021 0 0.021-0.021 0.064-0.021l-240.427-240.405c0 0-0.021 0.021-0.043 0.043l-60.843-60.864c0.021-0.021 0.043-0.021 0.043-0.021l-104.555-104.576 60.373-60.352 110.528 110.528c58.24-39.659 129.109-67.819 213.269-67.819 280.405 0 414.037 311.552 419.584 324.843l6.912 16.491-6.933 16.491zM594.197 448.491c1.877-6.976 3.157-14.208 3.157-21.781 0-47.061-38.272-85.333-85.333-85.333-7.573 0-14.805 1.28-21.781 3.136l103.957 103.979zM512.171 170.688c-57.557 0-107.904 18.005-151.104 44.672l64.427 64.427c25.365-15.040 54.912-23.744 86.507-23.744 94.101 0 170.667 76.565 170.667 170.667 0 31.573-8.704 61.12-23.744 86.507l71.851 71.851c60.715-58.539 99.243-127.467 114.709-158.421-29.355-59.115-141.589-255.957-333.312-255.957z" />
<glyph unicode="&#xe953;" glyph-name="eye-off" data-tags="action, eye-off, red-eye, control" d="M347.456 382.166c-3.861 14.229-6.101 29.099-6.101 44.544 0 94.101 76.565 170.667 170.667 170.667 15.424 0 30.315-2.24 44.544-6.101l131.627 131.627c-50.496 27.243-109.013 45.141-176 45.141-280.384 0-414.336-311.531-419.904-324.8l-6.955-16.533 6.955-16.533c2.837-6.763 39.147-91.051 111.125-172.053l144.043 144.043zM931.776 443.2c-3.2 7.616-48.875 113.707-140.267 202.603l104.491 104.491-60.373 60.373-707.627-707.627 60.373-60.352 110.528 110.528c58.24-39.659 129.109-67.84 213.291-67.84 280.405 0 414.037 311.552 419.584 324.843l6.912 16.491-6.912 16.491zM512.021 256.022c-31.616 0-61.141 8.704-86.507 23.765l64.704 64.704c6.997-1.877 14.208-3.136 21.803-3.136 47.061 0 85.333 38.272 85.333 85.333 0 7.573-1.28 14.805-3.157 21.781l64.704 64.704c15.061-25.365 23.765-54.891 23.765-86.507 0.021-94.080-76.544-170.645-170.645-170.645z" />
<glyph unicode="&#xe954;" glyph-name="expand-square" data-tags="action, expand-square, zoom-in, control" d="M128 554.667h85.333v170.667h170.667v85.333h-256zM640 810.667v-85.333h170.667v-170.667h85.333v256zM213.333 298.667h-85.333v-256h256v85.333h-170.667zM810.667 128h-170.667v-85.333h256v256h-85.333z" />
<glyph unicode="&#xe955;" glyph-name="compress-square" data-tags="action, compress-square, zoom-out, control" d="M298.667 640h-170.667v-85.333h256v256h-85.333zM725.333 640v170.667h-85.333v-256h256v85.333zM128 213.334h170.667v-170.667h85.333v256h-256zM640 42.667h85.333v170.667h170.667v85.333h-256z" />
<glyph unicode="&#xe956;" glyph-name="align-justify" data-tags="editor, align-justify, format" d="M128 725.334h768v-85.333h-768v85.333zM128 554.667h768v-85.333h-768v85.333zM128 384h768v-85.333h-768v85.333zM128 213.334h768v-85.333h-768v85.333z" />
<glyph unicode="&#xe957;" glyph-name="align-left" data-tags="editor, align-left, format" d="M128 725.334h554.667v-85.333h-554.667v85.333zM128 384h554.667v-85.333h-554.667v85.333zM128 554.667h768v-85.333h-768v85.333zM128 213.334h768v-85.333h-768v85.333z" />
<glyph unicode="&#xe958;" glyph-name="align-center" data-tags="editor, align-center, format" d="M256 725.334h512v-85.333h-512v85.333zM256 384h512v-85.333h-512v85.333zM128 554.667h768v-85.333h-768v85.333zM128 213.334h768v-85.333h-768v85.333z" />
<glyph unicode="&#xe959;" glyph-name="align-right" data-tags="editor, align-right, format" d="M341.333 725.334h554.667v-85.333h-554.667v85.333zM341.333 384h554.667v-85.333h-554.667v85.333zM128 554.667h768v-85.333h-768v85.333zM128 213.334h768v-85.333h-768v85.333z" />
<glyph unicode="&#xe95a;" glyph-name="indent" data-tags="editor, indent, format" d="M128 213.334h768v-85.333h-768v85.333zM128 725.334h768v-85.333h-768v85.333zM426.667 554.667h469.333v-85.333h-469.333v85.333zM426.667 384h469.333v-85.333h-469.333v85.333zM128 554.667v-256l213.333 128z" />
<glyph unicode="&#xe95b;" glyph-name="dedent" data-tags="editor, dedent, outdent, format" d="M128 213.334h768v-85.333h-768v85.333zM128 725.334h768v-85.333h-768v85.333zM426.662 554.667h469.333v-85.333h-469.333v85.333zM426.662 384h469.333v-85.333h-469.333v85.333zM341.342 298.667v256l-213.333-128z" />
<glyph unicode="&#xe95c;" glyph-name="list-dot" data-tags="editor, list-dot, format, text" d="M384 213.334h512v-85.333h-512v85.333zM384 725.334h512v-85.333h-512v85.333zM384 469.334h512v-85.333h-512v85.333zM298.667 682.667c0-47.128-38.205-85.333-85.333-85.333s-85.333 38.205-85.333 85.333c0 47.128 38.205 85.333 85.333 85.333s85.333-38.205 85.333-85.333zM298.667 426.667c0-47.128-38.205-85.333-85.333-85.333s-85.333 38.205-85.333 85.333c0 47.128 38.205 85.333 85.333 85.333s85.333-38.205 85.333-85.333zM298.667 170.667c0-47.128-38.205-85.333-85.333-85.333s-85.333 38.205-85.333 85.333c0 47.128 38.205 85.333 85.333 85.333s85.333-38.205 85.333-85.333z" />
<glyph unicode="&#xe95d;" glyph-name="list-square" data-tags="editor, list-square, format, text" d="M384 213.334h512v-85.333h-512v85.333zM384 725.334h512v-85.333h-512v85.333zM384 469.334h512v-85.333h-512v85.333zM128 768h170.667v-170.667h-170.667v170.667zM128 512h170.667v-170.667h-170.667v170.667zM128 256h170.667v-170.667h-170.667v170.667z" />
<glyph unicode="&#xe95e;" glyph-name="dashboard-o" data-tags="action, dashboard-o, tachometer, setting" d="M511.915 853.334c-235.264 0-426.667-191.403-426.667-426.667 0-105.173 38.613-206.208 108.715-284.544 10.475-11.669 21.739-22.933 33.493-33.451l30.080-26.965 150.336 150.336-60.331 60.331-91.563-91.563c-55.083 62.4-85.376 142.507-85.376 225.856 0 188.203 153.131 341.333 341.333 341.333s341.333-153.131 341.333-341.333c0-173.781-130.517-317.611-298.667-338.688v338.688h-85.333v-426.667h42.667c235.264 0 426.667 191.403 426.667 426.667s-191.424 426.667-426.688 426.667zM554.581 640c0 23.467-19.2 42.667-42.667 42.667s-42.667-19.2-42.667-42.667c0-23.467 19.2-42.667 42.667-42.667s42.667 19.2 42.667 42.667zM255.915 426.667c0-23.467 19.2-42.667 42.667-42.667s42.667 19.2 42.667 42.667-19.2 42.667-42.667 42.667c-23.467 0-42.667-19.2-42.667-42.667zM767.915 426.667c0 23.467-19.2 42.667-42.667 42.667s-42.667-19.2-42.667-42.667c0-23.467 19.2-42.667 42.667-42.667s42.667 19.2 42.667 42.667z" />
<glyph unicode="&#xe95f;" glyph-name="list" data-tags="editor, list, format, text" d="M128 725.334h170.667v-85.333h-170.667v85.333zM128 469.334h170.667v-85.333h-170.667v85.333zM128 213.334h170.667v-85.333h-170.667v85.333zM384 213.334h512v-85.333h-512v85.333zM384 725.334h512v-85.333h-512v85.333zM384 469.334h512v-85.333h-512v85.333z" />
<glyph unicode="&#xe960;" glyph-name="drag-handle" data-tags="action, drag-handle, control" d="M853.333 554.667h-682.667v-85.333h682.667v85.333zM170.667 298.667h682.667v85.333h-682.667v-85.333z" />
<glyph unicode="&#xe961;" glyph-name="flag" data-tags="action, flag, setting" d="M614.315 682.667l-17.067 85.333h-384v-725.333h85.333v298.667h238.933l17.067-85.333h298.667v426.667h-238.933z" />
<glyph unicode="&#xe962;" glyph-name="flag-o" data-tags="action, flag-o, setting" d="M618.581 682.667h234.667v-426.667h-298.667l-21.333 85.333h-234.667v-298.667h-85.333v725.333h384l21.333-85.333zM298.581 682.667v-256h256l21.333-85.333h192v256h-170.667l-21.333 85.333h-277.333z" />
<glyph unicode="&#xe963;" glyph-name="log-in" data-tags="action, log-in, sign-in, pointer" d="M296.896 128h513.749v597.333h-513.749v85.333h599.083v-768h-599.083zM725.355 426.667l-256.021 213.333v-128h-341.333v-170.667h341.333v-128z" />
<glyph unicode="&#xe964;" glyph-name="lock" data-tags="action, lock, https, setting" d="M768 597.334h-42.667v85.333c0 94.101-76.565 170.667-170.667 170.667h-85.333c-94.101 0-170.667-76.565-170.667-170.667v-85.333h-42.667c-47.061 0-85.333-38.272-85.333-85.333v-426.667c0-47.061 38.272-85.333 85.333-85.333h512c47.061 0 85.333 38.272 85.333 85.333v426.667c0 47.061-38.272 85.333-85.333 85.333zM384 682.667c0 47.061 38.272 85.333 85.333 85.333h85.333c47.061 0 85.333-38.272 85.333-85.333v-85.333h-256v85.333zM554.667 213.334h-85.333v170.667h85.333v-170.667z" />
<glyph unicode="&#xe965;" glyph-name="unlock" data-tags="action, unlock, open, setting" d="M768 597.334h-42.667v85.333c0 94.101-76.565 170.667-170.667 170.667h-213.333v-85.333h213.333c47.061 0 85.333-38.272 85.333-85.333v-85.333h-384c-47.061 0-85.333-38.272-85.333-85.333v-426.667c0-47.061 38.272-85.333 85.333-85.333h512c47.061 0 85.333 38.272 85.333 85.333v426.667c0 47.061-38.272 85.333-85.333 85.333zM554.667 384v-170.667h-85.333v170.667h85.333z" />
<glyph unicode="&#xe966;" glyph-name="lock-o" data-tags="action, lock-o, https, setting" d="M768 597.334h-42.667v85.333c0 94.101-76.565 170.667-170.667 170.667h-85.333c-94.101 0-170.667-76.565-170.667-170.667v-85.333h-42.667c-47.061 0-85.333-38.272-85.333-85.333v-426.667c0-47.061 38.272-85.333 85.333-85.333h512c47.061 0 85.333 38.272 85.333 85.333v426.667c0 47.061-38.272 85.333-85.333 85.333zM384 682.667c0 47.061 38.272 85.333 85.333 85.333h85.333c47.061 0 85.333-38.272 85.333-85.333v-85.333h-256v85.333zM256 85.334v426.667h512l0.043-426.667h-512.043zM469.333 384h85.333v-170.667h-85.333v170.667z" />
<glyph unicode="&#xe967;" glyph-name="unlock-o" data-tags="action, unlock-o, open, setting" d="M768 597.334h-42.667v85.333c0 94.101-76.565 170.667-170.667 170.667h-213.333v-85.333h213.333c47.061 0 85.333-38.272 85.333-85.333v-85.333h-384c-47.061 0-85.333-38.272-85.333-85.333v-426.667c0-47.061 38.272-85.333 85.333-85.333h512c47.061 0 85.333 38.272 85.333 85.333v426.667c0 47.061-38.272 85.333-85.333 85.333zM256 85.334v426.667h512l0.043-426.667h-512.043zM469.333 384h85.333v-170.667h-85.333v170.667z" />
<glyph unicode="&#xe968;" glyph-name="paragraph" data-tags="editor, paragraph, format, text" d="M853.333 810.667h-451.221c-127.616 0-231.445-105.28-231.445-234.667s103.808-234.667 231.445-234.667h109.888v-298.667h85.333v682.667h85.333v-682.667h85.333v682.667h85.333v85.333z" />
<glyph unicode="&#xe969;" glyph-name="strikethrough" data-tags="editor, strikethrough, text, format" d="M896 469.334h-768v-85.333h422.421c36.949-9.408 62.613-16.853 76.48-22.187 31.403-11.84 53.888-26.432 67.584-43.819 13.632-17.408 20.459-37.76 20.459-61.035 0-22.997-7.083-44.181-21.205-63.573-14.208-19.435-35.797-34.688-64.789-45.845-29.013-11.115-62.485-16.725-100.331-16.725-42.667 0-81.045 7.36-115.157 22.037-34.133 14.677-59.307 33.963-75.499 57.771-16.213 23.765-26.539 54.272-30.997 91.413l-93.653-8.085c1.344-49.664 15.083-94.144 41.216-133.504 26.091-39.36 62.080-68.843 108.032-88.405 45.824-19.605 102.763-29.376 170.667-29.376 53.589 0 101.781 9.707 144.619 29.099 42.816 19.435 75.669 46.635 98.517 81.579 22.848 34.965 34.283 72.171 34.283 111.68 0 39.829-10.411 75.051-31.189 105.643-3.157 4.629-7.104 8.917-10.795 13.312h127.339v85.355zM269.504 512h175.957c-39.552 11.755-65.941 23.339-78.571 34.709-19.456 17.237-29.184 39.168-29.184 65.877 0 30.72 13.717 56.96 41.216 78.741 27.456 21.803 71.232 32.683 131.285 32.683 57.664 0 101.269-11.989 130.773-35.968 29.525-24 46.848-59.435 51.947-106.389l95.232 7.083c-1.749 43.584-14.016 82.581-36.885 117.056-22.848 34.411-55.552 60.523-98.027 78.251-42.496 17.749-91.563 26.603-147.136 26.603-50.517 0-96.427-8.448-137.707-25.344s-72.683-41.621-94.187-74.219c-21.483-32.597-32.256-67.627-32.256-105.152 0-34.112 8.768-64.917 26.368-92.437 0.363-0.491 0.832-0.96 1.173-1.493z" />
<glyph unicode="&#xe96a;" glyph-name="bold" data-tags="editor, bold, format" d="M700.864 442.368c41.216 38.933 67.136 93.909 67.136 154.965 0 117.632-95.701 213.333-213.312 213.333h-298.688v-768h341.355c117.611 0 213.312 95.701 213.312 213.333 0 80.064-44.395 149.888-109.803 186.368zM341.333 725.334h213.355c70.571 0 128-57.408 128-128s-57.408-128-128-128h-213.355v256zM597.355 128h-256.021v256h256.021c70.571 0 128-57.408 128-128s-57.429-128-128-128z" />
<glyph unicode="&#xe96b;" glyph-name="underline" data-tags="editor, underline, format, text" d="M128 128h768v-85.333h-768v85.333zM512 169.643c164.693 0 298.667 133.973 298.667 298.667v342.357h-85.333v-342.357c0-117.632-95.701-213.333-213.333-213.333s-213.333 95.701-213.333 213.333v342.357h-85.333v-342.357c0-164.693 133.973-298.667 298.667-298.667z" />
<glyph unicode="&#xe96c;" glyph-name="italic" data-tags="editor, italic, format" d="M426.667 810.667v-85.333h169.429l-261.355-597.333h-164.075v-85.333h426.667v85.333h-169.429l261.333 597.333h164.096v85.333z" />
<glyph unicode="&#xe96d;" glyph-name="caps" data-tags="editor, caps, format, text" d="M817.813 810.667h-647.147v-170.688h85.291v85.333h213.376v-597.333h-128.085v-85.312h341.397v85.312h-127.979v597.333h213.333v-85.333h85.333v170.688z" />
<glyph unicode="&#xe96e;" glyph-name="trash" data-tags="action, trash, delete, setting" d="M639.979 767.808v85.525h-256v-85.525h-213.312v-85.333h682.667v85.333zM725.333 640h-512v-597.333c0-23.552 19.115-42.667 42.667-42.667h512c23.552 0 42.667 20.459 42.667 44.011v595.989h-85.333z" />
<glyph unicode="&#xe96f;" glyph-name="trash-o" data-tags="action, trash-o, delete, setting" d="M640 767.808v85.525h-256v-85.525h-213.333v-85.333h682.667v85.333zM725.333 85.334h-426.667v554.667h-85.333v-597.333c0-23.552 19.115-42.667 42.667-42.667h512c23.552 0 42.667 19.115 42.667 42.667v597.333h-85.333v-554.667z" />
<glyph unicode="&#xe970;" glyph-name="eraser" data-tags="editor, eraser, delete, function" d="M618.603 853.312l-533.269-480.491 220.117-244.843h223.765l409.451 369.301-320.064 356.032zM496.405 213.312h-152.939l-137.707 153.173 201.003 181.12 206.080-229.248-116.437-105.045zM85.333 85.334h853.333v-85.333h-853.333v85.333z" />
<glyph unicode="&#xe971;" glyph-name="eraser-o" data-tags="editor, eraser-o, delete, function" d="M85.333 85.334h853.333v-85.333h-853.333v85.333zM529.216 128l409.451 369.301-320.064 356.032-533.269-480.491 220.117-244.843h223.765zM612.245 732.758l205.995-229.141-142.891-128.875-206.059 229.205 142.955 128.811zM405.909 546.838l206.080-229.248-115.584-104.235h-152.939l-137.707 153.173 200.149 180.309z" />
<glyph unicode="&#xe972;" glyph-name="log-out" data-tags="action, log-out, sign-out, pointer" d="M896 426.667l-256 213.333v-128h-341.355v-170.667h341.355v-128zM725.333 128h-512v597.333h512v85.333h-597.333v-768h597.333z" />
<glyph unicode="&#xe973;" glyph-name="refresh" data-tags="action, refresh, renew, control" d="M512 128c-164.693 0-298.667 133.973-298.667 298.667s133.973 298.667 298.667 298.667c82.368 0 156.843-33.621 210.837-87.787l-125.589-125.547h298.752v298.667l-112.917-112.896c-69.419 69.632-165.184 112.896-271.083 112.896-211.733 0-384-172.267-384-384s172.267-384 384-384c182.357 0 335.061 127.936 373.995 298.667h-88.427c-36.821-123.136-150.592-213.333-285.568-213.333z" />
<glyph unicode="&#xe974;" glyph-name="sort-asc" data-tags="editor, sort-asc, ascending, table, function" d="M85.333 341.291h128v384.043h85.333v-384.043h128l-170.667-213.291zM469.333 213.342h469.333v-85.333h-469.333v85.333zM469.333 554.664h298.667v-85.333h-298.667v85.333zM469.333 384.003h384v-85.333h-384v85.333zM469.333 725.326h213.333v-85.333h-213.333v85.333z" />
<glyph unicode="&#xe975;" glyph-name="sort-desc" data-tags="editor, sort-desc, descending, table, function" d="M469.333 725.334h469.333v-85.333h-469.333v85.333zM469.333 384h298.667v-85.333h-298.667v85.333zM469.333 554.667h384v-85.333h-384v85.333zM469.333 213.334h213.333v-85.333h-213.333v85.333zM299.157 725.334h-85.333v-384h-128.491l170.667-213.333 170.667 213.333h-127.509z" />
<glyph unicode="&#xe976;" glyph-name="line-height" data-tags="editor, line-height, function, format" d="M384 554.667h85.845v-256h-85.845l128-128 42.667 42.667h0.512v0.491l84.821 84.843h-84.821v256h84.821l-84.821 84.843v0.491h-0.512l-42.667 42.667zM938.667 768h-853.333v-85.333h853.333zM85.333 85.334h853.333v85.333h-853.333z" />
<glyph unicode="&#xe977;" glyph-name="renew" data-tags="action, renew, auto-renew, refresh, control" d="M768 426.667h-128l170.667-170.667 170.667 170.667h-128c0 188.587-152.747 341.333-341.333 341.333-66.987 0-129.28-19.627-181.76-52.907l62.293-62.293c35.413 19.2 76.373 29.867 119.467 29.867 141.227 0 256-114.773 256-256zM693.76 138.24l-62.293 62.293c-35.84-18.773-76.373-29.867-119.467-29.867-141.227 0-256 114.773-256 256h128l-170.667 170.667-170.667-170.667h128c0-188.587 152.747-341.333 341.333-341.333 66.987 0 129.28 19.627 181.76 52.907z" />
<glyph unicode="&#xe978;" glyph-name="rotate-right" data-tags="editor, rotate-right, function" d="M938.645 512l0.021 256-92.011-76.843c-79.915 100.693-202.645 162.176-334.549 162.176-235.349 0-426.795-191.403-426.795-426.667s191.445-426.667 426.795-426.667c150.997 0 287.744 77.269 365.781 206.72l-73.109 44.032c-62.464-103.573-171.861-165.44-292.672-165.44-188.267 0-341.44 153.131-341.44 341.333s153.173 341.333 341.44 341.333c106.283 0 205.184-49.877 269.077-131.499l-98.603-82.347 256.064-42.133z" />
<glyph unicode="&#xe979;" glyph-name="rotate-left" data-tags="editor, rotate-left, function" d="M512 853.334c-131.84 0-254.549-61.461-334.421-162.155l-91.797 76.821-0.427-256 256 42.155-98.368 82.304c63.872 81.643 162.752 131.541 269.035 131.541 188.203 0 341.333-153.131 341.333-341.333s-153.131-341.333-341.333-341.333c-120.768 0-230.144 61.845-292.587 165.44l-73.088-44.032c78.016-129.451 214.72-206.72 365.675-206.72 235.264 0 426.667 191.403 426.667 426.667s-191.424 426.645-426.688 426.645z" />
<glyph unicode="&#xe97a;" glyph-name="search" data-tags="action, search, magnify, zoom" d="M810.667 490.667c0 200.299-162.368 362.667-362.667 362.667s-362.667-162.368-362.667-362.667 162.368-362.667 362.667-362.667c200.299 0 362.667 162.368 362.667 362.667zM448 213.334c-152.939 0-277.333 124.416-277.333 277.333s124.395 277.333 277.333 277.333c152.917 0 277.333-124.416 277.333-277.333s-124.416-277.333-277.333-277.333zM703.485 173.741l61.29 61.29 173.37-173.37-61.29-61.29-173.37 173.37z" />
<glyph unicode="&#xe97b;" glyph-name="zoom-in" data-tags="action, zoom-in, search, magnify, control" d="M490.667 682.667h-85.333v-149.333h-149.333v-85.333h149.333v-149.333h85.333v149.333h149.333v85.333h-149.333zM810.667 490.667c0 200.299-162.368 362.667-362.667 362.667s-362.667-162.368-362.667-362.667 162.368-362.667 362.667-362.667c200.299 0 362.667 162.368 362.667 362.667zM448 213.334c-152.939 0-277.333 124.416-277.333 277.333s124.395 277.333 277.333 277.333c152.917 0 277.333-124.416 277.333-277.333s-124.416-277.333-277.333-277.333zM703.048 173.327l61.29 61.29 173.37-173.37-61.29-61.29-173.37 173.37z" />
<glyph unicode="&#xe97c;" glyph-name="zoom-out" data-tags="action, zoom-out, search, magnify, control" d="M256 533.334h384v-85.333h-384v85.333zM810.667 490.667c0 200.299-162.368 362.667-362.667 362.667s-362.667-162.368-362.667-362.667 162.368-362.667 362.667-362.667c200.299 0 362.667 162.368 362.667 362.667zM448 213.334c-152.939 0-277.333 124.416-277.333 277.333s124.395 277.333 277.333 277.333c152.917 0 277.333-124.416 277.333-277.333s-124.416-277.333-277.333-277.333zM703.044 173.305l61.29 61.29 173.37-173.37-61.29-61.29-173.37 173.37z" />
<glyph unicode="&#xe97d;" glyph-name="color-dropper" data-tags="editor, color-dropper, function" d="M756.245 498.774l-0.192 0.192 0.427 0.405-172.053 172.032-0.405-0.405-54.336 54.336-60.352-60.352 54.891-54.891-438.891-439.765v-170.304h170.475l439.979 438.528 54.528-54.528 60.352 60.352-54.421 54.4zM220.544 85.334h-49.877v49.685l413.845 414.677 50.901-50.88-414.869-413.483zM903.019 817.707c-47.531 47.509-124.587 47.509-172.117 0l-116.267-116.139 172.032-172.032 116.373 116.245c47.509 47.467 47.509 124.437-0.021 171.925z" />
<glyph unicode="&#xe97e;" glyph-name="subdirectory" data-tags="action, subdirectory, depth, control" d="M298.667 426.667v426.667h-85.333v-512h512v85.333z" />
<glyph unicode="&#xe97f;" glyph-name="text-type" data-tags="editor, text-type, format, text" d="M659.456 147.392l-232.107 620.608h-84.544l-257.472-682.667h93.227l96.896 256.491h217.451l96.405-256.491h93.483l-23.339 62.059zM307.648 427.072l76.821 203.307 76.416-203.307h-153.237zM888.533 170.667c4.736 13.227 7.424 27.413 7.509 42.219h0.384v171.541c0 70.592-57.408 128-128 128h-128.875v-85.333h128.875c23.531 0 42.667-19.136 42.667-42.667v-43.115l-128.427-0.043c-16.64 0-32.491-3.307-47.104-9.109l30.037-79.851c5.248 2.283 11.029 3.627 17.131 3.627v0.043h128v-42.517c0-23.573-19.179-42.773-42.773-42.773v-0.043h-71.637l32.085-85.333h210.261v85.333h-50.133z" />
<glyph unicode="&#xe980;" glyph-name="external-link" data-tags="action, external-link, launch, control" d="M810.667 128h-597.333v597.333h298.667v85.333h-384v-768h768v384h-85.333zM597.333 810.667v-85.333h153.195l-255.787-256.491 60.416-60.267 255.509 256.235v-152.811h85.333v298.667z" />
<glyph unicode="&#xe981;" glyph-name="subdirectory-arrow" data-tags="action, subdirectory-arrow, depth, control" d="M810.667 384l-213.333-213.333-60.587 60.587 110.507 110.080h-433.92v512h85.333v-426.667h348.587l-110.507 110.080 60.587 60.587 213.333-213.333z" />
<glyph unicode="&#xe982;" glyph-name="sync" data-tags="action, sync, loop, control" d="M767.915 426.667c0-43.093-10.667-84.053-29.867-119.467l62.293-62.293c33.28 52.48 52.907 114.773 52.907 181.76 0 188.587-152.747 341.333-341.333 341.333v128l-170.667-170.667 170.667-170.667v128c141.227 0 256-114.773 256-256zM170.581 426.667c0-188.587 152.747-341.333 341.333-341.333v-128l170.667 170.667-170.667 170.667v-128c-141.227 0-256 114.773-256 256 0 43.093 11.093 83.627 29.867 119.467l-62.293 62.293c-33.28-52.48-52.907-114.773-52.907-181.76z" />
<glyph unicode="&#xe983;" glyph-name="view-array" data-tags="action, view-array, control" d="M170.667 128h128v597.333h-128v-597.333zM768 725.334v-597.333h128v597.333h-128zM341.333 128h384v597.333h-384v-597.333z" />
<glyph unicode="&#xe984;" glyph-name="view-carousel" data-tags="action, view-carousel, control" d="M341.248 128h384v640h-384v-640zM170.581 213.334h128v469.333h-128v-469.333zM767.915 682.667v-469.333h128v469.333h-128z" />
<glyph unicode="&#xe985;" glyph-name="view-column" data-tags="action, view-column, week, control" d="M426.667 128h213.333v597.333h-213.333v-597.333zM170.667 128h213.333v597.333h-213.333v-597.333zM682.667 725.334v-597.333h213.333v597.333h-213.333z" />
<glyph unicode="&#xe986;" glyph-name="cog" data-tags="action, cog, settings" d="M825.216 374.72c0.789 5.355 1.387 10.731 2.005 16.107l0.341 2.475c0.213 1.365 0.405 2.752 0.512 4.117 0.875 9.728 1.323 19.52 1.323 29.227s-0.448 19.499-1.323 29.227c-0.128 1.365-0.32 2.752-0.512 4.117l-0.341 2.475c-0.597 5.376-1.216 10.752-2.005 16.107l88.277 71.595c3.947 3.179 4.992 8.768 2.517 13.227l-85.013 152.107c-2.56 4.565-8.107 6.549-12.864 4.565l-105.131-42.475c-1.237 0.96-2.453 1.92-3.691 2.88l-7.040 5.589c-2.325 1.92-4.672 3.84-7.083 5.589-1.28 0.939-2.645 1.792-3.989 2.645l-2.197 1.408c-20.757 14.336-42.453 25.984-64.576 34.645l-16.085 114.027c-0.725 5.099-5.077 8.939-10.219 8.939h-172.203c-5.141 0-9.493-3.84-10.219-8.939l-16.085-114.027c-22.123-8.661-43.819-20.288-64.512-34.603l-2.304-1.472c-1.301-0.832-2.645-1.685-3.925-2.624-2.411-1.749-4.757-3.669-7.083-5.568l-7.104-5.653c-1.216-0.939-2.411-1.877-3.648-2.837l-105.131 42.475c-4.779 1.984-10.283 0-12.843-4.565l-85.013-152.107c-2.475-4.459-1.408-10.048 2.517-13.227l88.277-71.595c-0.789-5.355-1.408-10.731-1.963-16.064l-0.363-2.411c-0.213-1.408-0.427-2.837-0.533-4.224-0.875-9.749-1.323-19.52-1.323-29.227s0.448-19.477 1.323-29.227c0.128-1.387 0.341-2.816 0.533-4.224l0.341-2.368c0.576-5.376 1.195-10.752 1.984-16.107l-88.277-71.573c-3.947-3.179-4.992-8.768-2.517-13.205l85.013-152.149c2.56-4.544 8.085-6.507 12.843-4.565l105.131 42.475c1.152-0.896 2.283-1.792 3.456-2.667l7.083-5.632c2.368-1.963 4.8-3.947 7.296-5.76 1.109-0.789 2.24-1.515 3.392-2.24l1.963-1.28c20.928-14.549 42.923-26.368 65.387-35.179l16.085-114.027c0.725-5.099 5.077-8.939 10.219-8.939h172.203c5.141 0 9.493 3.84 10.219 8.939l16.085 114.027c22.507 8.832 44.48 20.651 65.365 35.157l1.963 1.28c1.173 0.725 2.304 1.472 3.413 2.261 2.539 1.835 4.971 3.819 7.424 5.824l6.955 5.547c1.173 0.875 2.304 1.771 3.456 2.667l105.131-42.475c4.757-1.941 10.283 0.021 12.864 4.565l85.013 152.149c2.475 4.437 1.408 10.027-2.517 13.205l-88.277 71.595zM661.547 426.667c0-82.325-66.987-149.333-149.333-149.333-82.325 0-149.333 67.008-149.333 149.333s67.008 149.333 149.333 149.333c82.347 0 149.333-67.008 149.333-149.333z" />
<glyph unicode="&#xe987;" glyph-name="border-all" data-tags="editor, border-all, grid, border, format" d="M128 810.667v-768h768v768h-768zM810.667 725.334v-256h-256v256h256zM469.333 725.334v-256h-256v256h256zM213.333 128v256h256v-256h-256zM554.667 128v256h256v-256h-256z" />
<glyph unicode="&#xe988;" glyph-name="layout" data-tags="editor, layout, function, format" d="M128 597.334h768v-554.667h-768v554.667zM128 810.667h768v-170.667h-768v170.667z" />
<glyph unicode="&#xe989;" glyph-name="layout-full" data-tags="editor, layout-full, function, format" d="M128 810.667h768v-768h-768v768z" />
<glyph unicode="&#xe98a;" glyph-name="layout-snb" data-tags="editor, layout-snb, function, format" d="M341.333 597.334h554.667v-554.667h-554.667v554.667zM128 597.334h170.667v-554.667h-170.667v554.667zM128 810.667h768v-170.667h-768v170.667z" />
<glyph unicode="&#xe98b;" glyph-name="layout-aside" data-tags="editor, layout-aside, function, format" d="M128 597.334h554.667v-554.667h-554.667v554.667zM725.333 597.334h170.667v-554.667h-170.667v554.667zM128 810.667h768v-170.667h-768v170.667z" />
<glyph unicode="&#xe98c;" glyph-name="layout-column" data-tags="editor, layout-column, function, format" d="M341.333 597.334h341.333v-554.667h-341.333v554.667zM128 597.334h170.667v-554.667h-170.667v554.667zM128 810.667h768v-170.667h-768v170.667zM725.333 597.334h170.667v-554.667h-170.667v554.667z" />
<glyph unicode="&#xe98d;" glyph-name="view-day" data-tags="action, view-day, control" d="M896 128v128h-725.333v-128h725.333zM170.667 597.334h725.333v128h-725.333v-128zM896 298.667v256h-725.333v-256h725.333z" />
<glyph unicode="&#xe98e;" glyph-name="layout-o" data-tags="editor, layout-o, function, format" d="M128 810.667v-768h768v768h-768zM810.667 725.334v-128h-597.333v128h597.333zM213.333 128v384h597.333v-384h-597.333z" />
<glyph unicode="&#xe98f;" glyph-name="layout-full-o" data-tags="editor, layout-full-o, function, format" d="M896 42.667h-768v768h768v-768zM213.333 128h597.333v597.333h-597.333v-597.333z" />
<glyph unicode="&#xe990;" glyph-name="layout-snb-o" data-tags="editor, layout-snb-o, function, format" d="M128 810.667v-768h768v768h-768zM810.667 725.334v-128h-597.333v128h597.333zM213.333 512h128v-384h-128v384zM426.667 128v384h384v-384h-384z" />
<glyph unicode="&#xe991;" glyph-name="layout-aside-o" data-tags="editor, layout-aside-o, function, format" d="M128 810.667v-768h768v768h-768zM810.667 725.334v-128h-597.333v128h597.333zM213.333 512h384v-384h-384v384zM682.667 128v384h128v-384h-128z" />
<glyph unicode="&#xe992;" glyph-name="layout-column-o" data-tags="editor, layout-column-o, function, format" d="M128 810.667v-768h768v768h-768zM810.667 725.334v-128h-597.333v128h597.333zM640 512v-384h-256v384h256zM213.333 512h85.333v-384h-85.333v384zM725.333 128v384h85.333v-384h-85.333z" />
<glyph unicode="&#xe993;" glyph-name="view-list" data-tags="action, view-list, control" d="M170.581 341.334h170.667v170.667h-170.667v-170.667zM170.581 128h170.667v170.667h-170.667v-170.667zM170.581 554.667h170.667v170.667h-170.667v-170.667zM383.915 341.334h512v170.667h-512v-170.667zM383.915 128h512v170.667h-512v-170.667zM383.915 725.334v-170.667h512v170.667h-512z" />
<glyph unicode="&#xe994;" glyph-name="scissors" data-tags="editor, scissors, cut, function" d="M704 341.334c-15.125 0-29.717-2.283-43.456-6.507l-71.808 76.395 180.523 186.112c107.221 102.677 43.563 211.179 42.752 213.141v0.192l-0.064-0.064-0.021 0.064-0.213-0.299-299.051-318.208-299.371 318.315c-0.811-1.963-64.469-110.485 42.752-213.141l180.523-186.112-72.064-76.693c-14.080 4.416-29.013 6.784-44.523 6.784-82.325 0-149.333-67.008-149.333-149.333s67.008-149.333 149.333-149.333c82.325 0 149.333 67.008 149.333 149.333 0 27.371-7.552 52.971-20.459 75.072l63.787 65.749 62.955-64.917c-13.227-22.272-20.949-48.171-20.949-75.904 0-82.325 67.008-149.333 149.333-149.333s149.333 67.008 149.333 149.333-66.987 149.355-149.312 149.355zM320 128c-35.285 0-64 28.715-64 64s28.715 64 64 64 64-28.715 64-64-28.715-64-64-64zM512.021 384c-11.776 0-21.333 9.557-21.333 21.355 0 11.776 9.557 21.312 21.333 21.312s21.333-9.536 21.333-21.312c0-11.797-9.557-21.355-21.333-21.355zM704 128c-35.285 0-64 28.715-64 64s28.715 64 64 64 64-28.715 64-64-28.715-64-64-64z" />
<glyph unicode="&#xe995;" glyph-name="palette" data-tags="editor, palette, color, function" d="M938.667 427.67l-0.085 0.384c-0.832 211.435-191.467 382.635-426.581 382.635-235.648 0-426.667-171.925-426.667-384 0-207.744 183.445-376.533 412.437-383.36v-0.64h248.896c35.349 0 64 28.651 64 64 0 35.328-28.651 64-64 64h-21.333c-47.125 0-85.333 38.208-85.333 85.333s38.208 85.333 85.333 85.333h170.667c15.424 0 28.821 8.256 36.288 20.501 3.968 6.485 6.379 14.016 6.379 22.165 0 1.003-0.363 1.899-0.448 2.88 0.107 0.725 0.448 1.365 0.448 2.133v38.635zM277.333 256c-35.349 0-64 28.651-64 64 0 35.328 28.651 64 64 64s64-28.672 64-64c0-35.349-28.651-64-64-64zM277.333 469.334c-35.349 0-64 28.672-64 64 0 35.349 28.651 64 64 64 35.328 0 64-28.651 64-64 0-35.328-28.672-64-64-64zM490.667 597.334c-35.349 0-64 28.672-64 64 0 35.349 28.651 64 64 64 35.328 0 64-28.651 64-64 0-35.328-28.672-64-64-64zM704 469.334c-35.328 0-64 28.672-64 64 0 35.349 28.672 64 64 64 35.349 0 64-28.651 64-64 0-35.328-28.651-64-64-64z" />
<glyph unicode="&#xe996;" glyph-name="drag-vertical" data-tags="action, drag-vertical, handle, control" d="M384 810.667h85.333v-85.333h-85.333v85.333zM554.667 810.667h85.333v-85.333h-85.333v85.333zM384 640h85.333v-85.333h-85.333v85.333zM554.667 640h85.333v-85.333h-85.333v85.333zM384 469.334h85.333v-85.333h-85.333v85.333zM554.667 469.334h85.333v-85.333h-85.333v85.333zM384 298.667h85.333v-85.333h-85.333v85.333zM554.667 298.667h85.333v-85.333h-85.333v85.333zM384 128h85.333v-85.333h-85.333v85.333zM554.667 128h85.333v-85.333h-85.333v85.333z" />
<glyph unicode="&#xe997;" glyph-name="view-module" data-tags="action, view-module, comfy, control" d="M170.581 469.334h213.333v256h-213.333v-256zM170.581 170.667h213.333v256h-213.333v-256zM426.581 170.667h213.333v256h-213.333v-256zM682.581 170.667h213.333v256h-213.333v-256zM426.581 469.334h213.333v256h-213.333v-256zM682.581 725.334v-256h213.333v256h-213.333z" />
<glyph unicode="&#xe998;" glyph-name="document" data-tags="editor, document, paste, function" d="M341.333 554.667h170.667v-85.333h-170.667v85.333zM341.333 426.667h341.333v-85.333h-341.333v85.333zM341.333 298.667h341.333v-85.333h-341.333v85.333zM810.667 810.667h-170.667v42.667h-256v-42.667h-170.667c-23.552 0-42.667-19.115-42.667-42.667v-725.333c0-23.552 19.115-42.667 42.667-42.667h597.333c23.552 0 42.667 19.115 42.667 42.667v725.333c0 23.552-19.115 42.667-42.667 42.667zM768 85.334h-512v640h128v-42.667h256v42.667h128v-640z" />
<glyph unicode="&#xe999;" glyph-name="crop" data-tags="editor, crop, function" d="M298.667 213.334v384h-85.333v-469.333h469.333v85.333zM810.667 213.334v512h-512v128h-85.333v-128h-128v-85.333h640v-640h85.333v128h128v85.333z" />
<glyph unicode="&#xe99a;" glyph-name="view-stream" data-tags="action, view-stream, agenda, control" d="M170.581 170.667h725.333v256h-725.333v-256zM170.581 725.334v-256h725.333v256h-725.333z" />
<glyph unicode="&#xe99b;" glyph-name="wrench" data-tags="action, wrench, build, setting" d="M59.733 68.267l98.133-98.133c17.067-17.067 42.667-17.067 59.733 0l388.267 388.267c98.133-38.4 213.333-17.067 294.4 64 85.333 85.333 106.667 213.333 55.467 315.733l-187.733-183.467-128 128 183.467 183.467c-102.4 46.933-230.4 29.867-315.733-55.467-81.067-81.067-102.4-196.267-64-294.4l-388.267-388.267c-17.067-12.8-17.067-42.667 4.267-59.733z" />
<glyph unicode="&#xe99c;" glyph-name="bell" data-tags="message, bell, alarm, notification" d="M512-0c46.933 0 85.333 38.4 85.333 85.333h-170.667c0-46.933 38.357-85.333 85.333-85.333zM849.6 187.755l-39.019 85.696v138.667h0.043v57.344c0 2.219-0.277 4.373-0.341 6.592-0.149 7.211-0.427 14.4-1.088 21.483-0.405 4.267-1.109 8.448-1.685 12.651-0.683 4.992-1.344 10.005-2.261 14.912-0.896 4.715-2.005 9.301-3.115 13.909-1.003 4.181-2.027 8.384-3.2 12.48-1.408 4.949-2.965 9.835-4.629 14.699-1.195 3.456-2.453 6.912-3.776 10.325-2.005 5.205-4.075 10.389-6.357 15.445-1.173 2.56-2.432 5.077-3.669 7.616-2.752 5.675-5.547 11.307-8.661 16.768-0.405 0.725-0.875 1.408-1.301 2.155-16.171 28.011-36.736 53.056-60.779 74.368-0.363 0.32-0.704 0.64-1.045 0.96-5.76 5.035-11.712 9.835-17.835 14.443-0.725 0.533-1.451 1.109-2.197 1.643-6.101 4.48-12.331 8.747-18.752 12.779-0.704 0.448-1.429 0.853-2.155 1.301-6.656 4.075-13.419 7.979-20.395 11.541-0.043 0-0.064 0.021-0.107 0.043-15.872 8.085-32.725 14.379-50.048 19.605v12.949c0 47.061-38.165 85.227-85.205 85.227-47.061 0-85.205-38.165-85.205-85.227v-12.949c-17.344-5.227-34.219-11.52-50.091-19.605-0.021-0.021-0.064-0.043-0.107-0.043-6.976-3.563-13.76-7.467-20.395-11.541-0.725-0.448-1.429-0.853-2.155-1.301-6.421-4.011-12.672-8.299-18.752-12.779-0.747-0.533-1.472-1.109-2.197-1.643-6.144-4.608-12.096-9.387-17.835-14.443-0.363-0.32-0.704-0.64-1.045-0.96-24.043-21.312-44.608-46.379-60.779-74.368-0.427-0.725-0.896-1.408-1.301-2.155-3.115-5.461-5.888-11.115-8.661-16.768-1.237-2.539-2.496-5.056-3.669-7.616-2.283-5.056-4.373-10.219-6.357-15.445-1.323-3.413-2.581-6.869-3.776-10.325-1.664-4.864-3.221-9.728-4.629-14.699-1.173-4.096-2.219-8.299-3.2-12.48-1.109-4.629-2.219-9.216-3.115-13.909-0.917-4.907-1.579-9.92-2.261-14.912-0.576-4.203-1.28-8.384-1.685-12.651-0.661-7.083-0.939-14.272-1.088-21.483-0.043-2.219-0.341-4.352-0.341-6.592v-57.344h0.043v-138.667l-39.019-85.696c-2.368-5.205-3.733-10.965-3.733-17.067 0-23.595 19.115-42.688 42.667-42.688h597.333c23.552 0 42.667 19.093 42.667 42.688 0 6.101-1.365 11.861-3.733 17.067z" />
<glyph unicode="&#xe99d;" glyph-name="bell-o" data-tags="message, bell-o, alarm, notification" d="M512-0c46.933 0 85.333 38.4 85.333 85.333h-170.667c0-46.933 38.357-85.333 85.333-85.333zM849.6 187.755l-39.019 85.696v138.667l0.043 57.237h0.043c0 135.317-90.069 249.451-213.461 286.165v12.608c0 47.083-38.144 85.227-85.205 85.227s-85.205-38.144-85.205-85.227v-12.608c-123.413-36.715-213.461-150.848-213.461-286.165h0.043l0.043-57.237v-138.667l-39.019-85.696c-2.368-5.205-3.733-10.965-3.733-17.088 0-23.573 19.115-42.667 42.667-42.667h597.333c23.552 0 42.667 19.093 42.667 42.667 0 6.123-1.365 11.883-3.733 17.088zM597.291 213.334h-317.483l11.264 24.747 7.68 16.832v157.248l-0.043 57.237v3.947c2.133 115.797 97.003 209.344 213.291 209.344 116.267 0 211.093-93.483 213.291-209.237v-4.032l-0.043-57.301v-157.184l18.923-41.579h-146.88z" />
<glyph unicode="&#xe99e;" glyph-name="bell-off" data-tags="message, bell-off, alarm, notification" d="M512-0c46.933 0 85.333 38.4 85.333 85.333h-170.667c0-46.933 38.357-85.333 85.333-85.333zM679.509 716.118c-3.2 2.197-6.315 4.48-9.6 6.549-0.704 0.448-1.408 0.853-2.133 1.301-6.677 4.075-13.44 7.979-20.416 11.541-0.043 0-0.064 0.021-0.107 0.043-15.851 8.085-32.725 14.379-50.048 19.605v12.949c0 47.061-38.144 85.227-85.205 85.227s-85.205-38.165-85.205-85.227v-12.949c-17.344-5.227-34.219-11.52-50.091-19.605-0.043-0.021-0.064-0.043-0.107-0.043-6.976-3.563-13.76-7.467-20.416-11.541-0.704-0.448-1.408-0.853-2.133-1.301-6.443-4.011-12.693-8.299-18.773-12.779-0.747-0.533-1.472-1.109-2.219-1.643-6.123-4.608-12.075-9.387-17.835-14.443-0.363-0.32-0.683-0.64-1.045-0.96-24.064-21.312-44.629-46.379-60.8-74.368-0.427-0.725-0.896-1.408-1.301-2.155-3.093-5.461-5.888-11.115-8.64-16.768-1.237-2.539-2.517-5.056-3.669-7.616-2.283-5.056-4.373-10.219-6.379-15.445-1.323-3.413-2.581-6.869-3.797-10.325-1.643-4.864-3.2-9.728-4.629-14.677-1.173-4.096-2.197-8.299-3.2-12.48-1.109-4.629-2.219-9.216-3.093-13.909-0.939-4.907-1.6-9.92-2.283-14.912-0.555-4.203-1.28-8.384-1.664-12.651-0.661-7.083-0.939-14.272-1.088-21.483-0.064-2.219-0.341-4.352-0.341-6.592v-57.344h0.043l-0.043-167.467 466.219 471.467zM810.581 273.451v138.667h0.043v57.344c0 2.219-0.299 4.373-0.341 6.592-0.149 7.211-0.427 14.4-1.088 21.483-0.384 4.267-1.109 8.448-1.664 12.651-0.683 4.992-1.344 10.005-2.283 14.912-0.875 4.715-1.984 9.301-3.093 13.909-1.024 4.181-2.048 8.384-3.2 12.48-1.408 4.949-2.987 9.835-4.629 14.677-1.216 3.456-2.475 6.912-3.797 10.325-2.005 5.205-4.075 10.368-6.379 15.445-1.152 2.56-2.411 5.077-3.669 7.616-2.752 5.675-5.547 11.307-8.64 16.768-0.427 0.725-0.875 1.408-1.301 2.155-0.768 1.344-1.664 2.581-2.453 3.904l127.893 127.915-60.373 60.373-707.627-707.648 60.373-60.352 85.355 85.355h536.96c23.552 0 42.667 19.093 42.667 42.688 0 6.101-1.365 11.861-3.733 17.067l-39.019 85.675z" />
<glyph unicode="&#xe99f;" glyph-name="bell-off-o" data-tags="message, bell-off-o, alarm, notification" d="M512-0c46.933 0 85.333 38.4 85.333 85.333h-170.667c0-46.933 38.357-85.333 85.333-85.333zM810.581 273.43v138.667l0.043 57.237h0.043c0 56.043-15.659 108.288-42.581 153.045l127.915 127.915-60.373 60.373-707.627-707.648 60.373-60.352 85.333 85.333h536.96c23.552 0 42.667 19.093 42.667 42.667 0 6.123-1.365 11.883-3.733 17.088l-39.019 85.675zM597.312 213.334h-238.272l346.133 346.133c12.373-26.219 19.563-55.36 20.117-86.123v-3.947l-0.043-57.301v-157.184l7.659-16.853 11.264-24.725h-146.859zM298.752 335.574v76.587l-0.043 57.237v3.861c2.091 115.84 96.96 209.408 213.291 209.408 38.443 0 74.411-10.368 105.579-28.224l61.909 61.888c-25.003 16.96-52.672 30.357-82.283 39.168v12.608c0 47.061-38.144 85.227-85.205 85.227s-85.205-38.165-85.205-85.227v-12.608c-123.392-36.715-213.461-150.848-213.461-286.165h0.043l0.043-57.237-0.085-165.44 85.419 88.917z" />
<glyph unicode="&#xe9a0;" glyph-name="calendar" data-tags="message, calendar, date" d="M768 768v42.667h-85.333v-42.667h-341.333v42.667h-85.333v-42.667h-128v-725.333h768v725.333h-128zM213.333 128v427.392h597.333v-427.392h-597.333z" />
<glyph unicode="&#xe9a1;" glyph-name="calendar-add" data-tags="message, calendar-add, date" d="M768 768v42.667h-85.333v-42.667h-341.333v42.667h-85.333v-42.667h-128v-725.333h768v725.333h-128zM213.333 128v427.392h597.333v-427.392h-597.333zM554.667 469.334h-85.333v-85.333h-85.333v-85.333h85.333v-85.333h85.333v85.333h85.333v85.333h-85.333z" />
<glyph unicode="&#xe9a2;" glyph-name="calendar-remove" data-tags="message, calendar-remove, date" d="M768 768v42.667h-85.333v-42.667h-341.333v42.667h-85.333v-42.667h-128v-725.333h768v725.333h-128zM810.667 128h-597.333v427.392h597.333v-427.392zM384 384h256v-85.333h-256v85.333z" />
<glyph unicode="&#xe9a3;" glyph-name="calendar-cancle" data-tags="message, calendar-cancle, date" d="M384.491 273.451l60.032-60.032 67.648 67.669 67.733-67.755 60.011 60.032-67.733 67.755 67.819 67.84-60.032 60.032-67.797-67.819-68.16 68.16-60.011-60.032 68.139-68.181zM768 768v42.667h-85.333v-42.667h-341.333v42.667h-85.333v-42.667h-128v-725.333h768v725.333h-128zM810.667 128h-597.333v427.392h597.333v-427.392z" />
<glyph unicode="&#xe9a4;" glyph-name="calendar-check" data-tags="message, calendar-check, date" d="M768 768v42.667h-85.333v-42.667h-341.333v42.667h-85.333v-42.667h-128v-725.333h768v725.333h-128zM810.667 128h-597.333v427.392h597.333v-427.392zM469.397 213.334l213.205 213.184-60.331 60.352-152.875-152.853-67.797 67.797-60.331-60.352 67.797-67.797z" />
<glyph unicode="&#xe9a5;" glyph-name="calendar-list" data-tags="message, calendar-list, date" d="M768 768v42.667h-85.333v-42.667h-341.333v42.667h-85.333v-42.667h-128v-725.333h768v725.333h-128zM810.667 128h-597.333v427.392h597.333v-427.392zM298.667 512h426.667v-85.333h-426.667v85.333zM298.667 384h426.667v-85.333h-426.667v85.333zM298.667 256h426.667v-85.333h-426.667v85.333z" />
<glyph unicode="&#xe9a6;" glyph-name="info" data-tags="message, info, help, alert" d="M512 853.334c-235.264 0-426.667-191.424-426.667-426.667s191.403-426.667 426.667-426.667c235.264 0 426.667 191.424 426.667 426.667s-191.403 426.667-426.667 426.667zM554.667 510.742v-297.408h-85.333v255.787h-42.667v42.88h128v-1.259zM512 554.667c-23.573 0-42.667 19.115-42.667 42.667s19.093 42.667 42.667 42.667c23.552 0 42.667-19.115 42.667-42.667s-19.115-42.667-42.667-42.667z" />
<glyph unicode="&#xe9a7;" glyph-name="info-o" data-tags="message, info-o, help, alert" d="M512 853.334c-235.264 0-426.667-191.403-426.667-426.667s191.403-426.667 426.667-426.667c235.264 0 426.667 191.403 426.667 426.667s-191.403 426.667-426.667 426.667zM512 85.334c-188.203 0-341.333 153.131-341.333 341.333s153.131 341.333 341.333 341.333c188.203 0 341.333-153.131 341.333-341.333s-153.131-341.333-341.333-341.333zM554.667 597.334c0-23.564-19.103-42.667-42.667-42.667s-42.667 19.103-42.667 42.667c0 23.564 19.103 42.667 42.667 42.667s42.667-19.103 42.667-42.667zM554.347 512h-127.68v-42.667h42.88v-256h85.12v286.656h-0.32z" />
<glyph unicode="&#xe9a8;" glyph-name="new" data-tags="message, new, notification" d="M512 853.334c-235.627 0-426.667-191.019-426.667-426.667s191.040-426.667 426.667-426.667c235.648 0 426.667 191.019 426.667 426.667s-191.019 426.667-426.667 426.667zM682.667 255.915h-85.333v0.405l-170.667 207.147v-207.552h-85.333v341.333h85.333v-0.277l0.341 0.277 170.325-206.741v206.741h85.333v-341.333z" />
<glyph unicode="&#xe9a9;" glyph-name="new-o" data-tags="message, new-o, notification" d="M512 853.334c-235.264 0-426.667-191.403-426.667-426.667s191.403-426.667 426.667-426.667c235.264 0 426.667 191.403 426.667 426.667s-191.403 426.667-426.667 426.667zM512 85.334c-188.203 0-341.333 153.131-341.333 341.333s153.131 341.333 341.333 341.333c188.203 0 341.333-153.131 341.333-341.333s-153.131-341.333-341.333-341.333zM597.333 597.334v-204.544l-170.667 204.544h-85.333v-341.333h85.333v209.067l170.667-209.067h85.333v341.333z" />
<glyph unicode="&#xe9aa;" glyph-name="error" data-tags="message, error, alert" d="M512 853.334c-235.264 0-426.667-191.403-426.667-426.667s191.403-426.667 426.667-426.667c235.264 0 426.667 191.403 426.667 426.667s-191.403 426.667-426.667 426.667zM469.333 298.667h85.333v-85.333h-85.333v85.333zM554.667 341.334h-85.333v298.667h85.333v-298.667z" />
<glyph unicode="&#xe9ab;" glyph-name="error-o" data-tags="message, error-o, alert" d="M512 853.334c-235.264 0-426.667-191.403-426.667-426.667s191.403-426.667 426.667-426.667c235.264 0 426.667 191.403 426.667 426.667s-191.403 426.667-426.667 426.667zM512 85.334c-188.203 0-341.333 153.131-341.333 341.333s153.131 341.333 341.333 341.333c188.203 0 341.333-153.131 341.333-341.333s-153.131-341.333-341.333-341.333zM469.333 640h85.333v-298.667h-85.333v298.667zM469.333 298.667h85.333v-85.333h-85.333v85.333z" />
<glyph unicode="&#xe9ac;" glyph-name="help-o" data-tags="message, help-o, info, question, alert" d="M512 853.334c-235.264 0-426.667-191.403-426.667-426.667s191.403-426.667 426.667-426.667c235.264 0 426.667 191.403 426.667 426.667s-191.403 426.667-426.667 426.667zM512 85.334c-188.203 0-341.333 153.131-341.333 341.333s153.131 341.333 341.333 341.333c188.203 0 341.333-153.131 341.333-341.333s-153.131-341.333-341.333-341.333zM512 640c-70.592 0-128-57.408-128-128h85.333c0 23.531 19.157 42.667 42.667 42.667s42.667-19.136 42.667-42.667c0-9.685-2.475-21.653-20.715-36.907-10.859-8.192-64.619-51.797-64.619-111.744v-21.995h85.333v21.995c0 13.547 18.005 34.176 30.805 43.712 0.661 0.491 1.365 1.024 2.005 1.557 34.859 28.715 52.523 63.509 52.523 103.403 0 70.571-57.408 127.979-128 127.979zM554.667 256c0-23.564-19.103-42.667-42.667-42.667s-42.667 19.103-42.667 42.667c0 23.564 19.103 42.667 42.667 42.667s42.667-19.103 42.667-42.667z" />
<glyph unicode="&#xe9ad;" glyph-name="help" data-tags="message, help, info, question, alert" d="M512 853.334c-235.264 0-426.667-191.403-426.667-426.667s191.403-426.667 426.667-426.667 426.667 191.403 426.667 426.667-191.403 426.667-426.667 426.667zM512 213.334c-23.552 0-42.667 19.115-42.667 42.667s19.115 42.667 42.667 42.667 42.667-19.115 42.667-42.667-19.115-42.667-42.667-42.667zM587.477 408.598c-0.64-0.533-1.344-1.067-2.005-1.557-12.8-9.536-30.805-30.165-30.805-43.712v-21.995h-85.333v21.995c0 59.968 53.781 103.552 64.619 111.744 18.219 15.275 20.715 27.221 20.715 36.907 0 23.531-19.157 42.667-42.667 42.667s-42.667-19.136-42.667-42.667h-85.333c0 70.592 57.408 128 128 128s128-57.408 128-128c0-39.872-17.664-74.667-52.523-103.381z" />
<glyph unicode="&#xe9ae;" glyph-name="ban" data-tags="message, ban, block, alert" d="M512 853.334c-235.264 0-426.667-191.403-426.667-426.667s191.403-426.667 426.667-426.667 426.667 191.403 426.667 426.667-191.403 426.667-426.667 426.667zM512 768c78.741 0 151.147-27.072 208.96-72.043l-478.251-478.251c-44.971 57.813-72.043 130.219-72.043 208.96 0 188.203 153.131 341.333 341.333 341.333zM512 85.334c-78.741 0-151.147 27.072-208.96 72.043l478.251 478.251c44.971-57.813 72.043-130.219 72.043-208.96 0-188.203-153.131-341.333-341.333-341.333z" />
<glyph unicode="&#xe9af;" glyph-name="close-thin" data-tags="content, close-thin, times, clear" d="M874.667 738.603l-29.397 29.397-311.936-311.936-311.936 311.936-29.397-29.397 311.936-311.936-311.936-311.936 29.397-29.397 311.936 311.936 311.936-311.936 29.397 29.397-311.936 311.936z" />
<glyph unicode="&#xe9b0;" glyph-name="cut" data-tags="content, cut, scissors" d="M426.667 234.667c0 15.125-2.283 29.717-6.507 43.456l76.395 71.808 186.112-180.523c102.677-107.221 211.179-43.563 213.141-42.752h0.192l-0.064 0.064 0.064 0.021-0.299 0.213-318.208 299.051 318.315 299.371c-1.963 0.811-110.485 64.469-213.141-42.752l-186.112-180.523-76.693 72.064c4.416 14.080 6.784 29.013 6.784 44.523 0 82.325-67.008 149.333-149.333 149.333s-149.333-67.008-149.333-149.333 67.008-149.333 149.333-149.333c27.371 0 52.971 7.552 75.072 20.459l65.749-63.787-64.917-62.955c-22.272 13.227-48.171 20.949-75.904 20.949-82.325 0-149.333-67.008-149.333-149.333s67.008-149.333 149.333-149.333 149.355 66.987 149.355 149.312zM213.333 618.667c0 35.285 28.715 64 64 64s64-28.715 64-64-28.715-64-64-64-64 28.715-64 64zM469.333 426.646c0 11.776 9.557 21.333 21.355 21.333 11.776 0 21.312-9.557 21.312-21.333s-9.536-21.333-21.312-21.333c-11.797 0-21.355 9.557-21.355 21.333zM213.333 234.667c0 35.285 28.715 64 64 64s64-28.715 64-64-28.715-64-64-64-64 28.715-64 64z" />
<glyph unicode="&#xe9b1;" glyph-name="label" data-tags="content, label, tag, add" d="M752.213 689.494c-15.36 21.76-40.96 35.84-69.547 35.84l-469.333-0.427c-46.933 0-85.333-37.973-85.333-84.907v-426.667c0-46.933 38.4-84.907 85.333-84.907l469.333-0.427c28.587 0 54.187 14.080 69.547 35.84l186.453 262.827c0 0-186.453 262.827-186.453 262.827z" />
<glyph unicode="&#xe9b2;" glyph-name="label-o" data-tags="content, label-o, tag, add" d="M752.213 689.494c-15.36 21.76-40.96 35.84-69.547 35.84l-469.333-0.427c-46.933 0-85.333-37.973-85.333-84.907v-426.667c0-46.933 38.4-84.907 85.333-84.907l469.333-0.427c28.587 0 54.187 14.080 69.547 35.84l186.453 262.827c0 0-186.453 262.827-186.453 262.827zM682.667 213.334h-469.333v426.667h469.333l151.467-213.333-151.467-213.333z" />
<glyph unicode="&#xe9b3;" glyph-name="library-add" data-tags="content, library-add, collection, add" d="M170.624 725.334h-85.333v-682.667c0-23.552 19.115-42.667 42.667-42.667h640v85.333h-597.333v640zM853.376 810.667h-597.419c-23.467 0-42.667-19.2-42.667-42.667v-597.333c0-23.467 19.2-42.667 42.667-42.667h597.419c23.467 0 42.667 19.2 42.667 42.667v597.333c0 23.467-19.2 42.667-42.667 42.667zM767.957 426.667h-170.667v-170.667h-85.333v170.667h-170.667v85.333h170.667v170.667h85.333v-170.667h170.667v-85.333z" />
<glyph unicode="&#xe9b4;" glyph-name="library-bookmark" data-tags="content, library-bookmark, collection, add" d="M170.667 725.334h-85.333v-682.667c0-23.552 19.115-42.667 42.667-42.667h640v85.333h-597.333v640zM853.333 810.667h-597.333c-23.467 0-42.667-19.2-42.667-42.667v-597.333c0-23.467 19.2-42.667 42.667-42.667h597.333c23.467 0 42.667 19.2 42.667 42.667v597.333c0 23.467-19.2 42.667-42.667 42.667zM810.581 426.667l-106.645 85.333-106.645-85.333v298.667h213.291v-298.667z" />
<glyph unicode="&#xe9b5;" glyph-name="watch" data-tags="hardware, watch, clock, device" d="M768 426.667c0 76.075-33.536 144.277-86.379 191.211l-41.621 235.456h-256l-41.621-235.456c-52.843-46.933-86.379-115.157-86.379-191.211s33.536-144.277 86.379-191.211l41.621-235.456h256l41.621 235.456c52.843 46.933 86.379 115.136 86.379 191.211zM512 256c-94.101 0-170.667 76.565-170.667 170.667s76.565 170.667 170.667 170.667 170.667-76.565 170.667-170.667-76.565-170.667-170.667-170.667z" />
<glyph unicode="&#xe9b6;" glyph-name="mouse" data-tags="hardware, mouse, input" d="M512 853.334c-164.693 0-298.667-133.973-298.667-298.667v-256c0-164.693 133.973-298.667 298.667-298.667s298.667 133.973 298.667 298.667v256c0 164.693-133.973 298.667-298.667 298.667zM725.333 298.667c0-117.632-95.701-213.333-213.333-213.333s-213.333 95.701-213.333 213.333v256c0 117.632 95.701 213.333 213.333 213.333s213.333-95.701 213.333-213.333v-256zM469.325 597.369h85.352v-128.028h-85.352v128.028z" />
<glyph unicode="&#xe9b7;" glyph-name="sdcard" data-tags="hardware, sdcard, device" d="M810.667 853.334h-426.667c-9.237 0-18.219-3.008-25.6-8.533l-170.667-128.021c-10.752-8.043-17.067-20.693-17.067-34.133v-639.979c0-23.552 19.115-42.667 42.667-42.667h597.333c23.552 0 42.667 19.115 42.667 42.667v768c0 23.552-19.115 42.667-42.667 42.667zM341.333 554.667h-85.333v128h85.333v-128zM512 640h-85.333v128h85.333v-128zM640 640h-85.333v128h85.333v-128zM768 640h-85.333v128h85.333v-128z" />
<glyph unicode="&#xe9b8;" glyph-name="usb-drive" data-tags="hardware, usb-drive, port, device" d="M768 554.667v256c0 23.552-19.115 42.667-42.667 42.667h-426.667c-23.552 0-42.667-19.115-42.667-42.667v-256h-42.667v-512c0-23.552 19.115-42.667 42.667-42.667h512c23.552 0 42.667 19.115 42.667 42.667v512h-42.667zM341.333 768h341.333v-213.333h-341.333v213.333zM384 725.334h85.333v-128h-85.333v128zM554.667 725.334h85.333v-128h-85.333v128z" />
<glyph unicode="&#xe9b9;" glyph-name="save" data-tags="content, save, diskette, add" d="M883.499 712.832l-85.333 85.333c-8 8-18.859 12.501-30.165 12.501h-42.667v-256h-469.333v256h-85.333c-23.552 0-42.667-19.115-42.667-42.667v-682.667c0-23.552 19.115-42.667 42.667-42.667h682.667c23.552 0 42.667 19.115 42.667 42.667v597.333c0 11.307-4.501 22.165-12.501 30.165zM768 170.667h-512v256h512v-256zM511.445 810.667h171.776v-213.333h-171.776v213.333z" />
<glyph unicode="&#xe9ba;" glyph-name="diskette" data-tags="hardware, diskette, floppy, save" d="M883.499 712.832l-85.333 85.333c-8 8-18.859 12.501-30.165 12.501h-42.667v-256h-469.333v256h-85.333c-23.552 0-42.667-19.115-42.667-42.667v-682.667c0-23.552 19.115-42.667 42.667-42.667h682.667c23.552 0 42.667 19.115 42.667 42.667v597.333c0 11.307-4.501 22.165-12.501 30.165zM768 170.667h-512v256h512v-256zM511.445 810.667h171.776v-213.333h-171.776v213.333z" />
<glyph unicode="&#xe9bb;" glyph-name="print" data-tags="hardware, print" d="M896 640h-128v213.333h-512v-213.333h-128c-23.552 0-42.667-19.115-42.667-42.667v-384c0-23.552 19.115-42.667 42.667-42.667h128v-170.667h512v170.667h128c23.552 0 42.667 19.115 42.667 42.667v384c0 23.552-19.115 42.667-42.667 42.667zM341.333 768h341.333v-128h-341.333v128zM682.667 85.334h-341.333v170.667h341.333v-170.667zM810.667 469.334c-23.445 0-42.667 19.2-42.667 42.667 0 23.445 19.221 42.667 42.667 42.667s42.667-19.221 42.667-42.667c0-23.467-19.221-42.667-42.667-42.667z" />
<glyph unicode="&#xe9bc;" glyph-name="fax" data-tags="hardware, fax" d="M298.667 640h-170.667c-23.552 0-42.667-19.115-42.667-42.667v-512c0-23.552 19.115-42.667 42.667-42.667h170.667c23.552 0 42.667 19.115 42.667 42.667v512c0 23.552-19.115 42.667-42.667 42.667zM896 810.667h-341.333c-23.552 0-42.667-19.115-42.667-42.667v-128h-128v-597.333h512c23.552 0 42.667 19.115 42.667 42.667v682.667c0 23.552-19.115 42.667-42.667 42.667zM554.667 170.667c-23.573 0-42.667 19.115-42.667 42.667 0 23.573 19.093 42.667 42.667 42.667 23.552 0 42.667-19.093 42.667-42.667 0-23.552-19.115-42.667-42.667-42.667zM554.667 341.334c-23.573 0-42.667 19.115-42.667 42.667 0 23.573 19.093 42.667 42.667 42.667 23.552 0 42.667-19.093 42.667-42.667 0-23.552-19.115-42.667-42.667-42.667zM682.667 170.667c-23.573 0-42.667 19.115-42.667 42.667 0 23.573 19.093 42.667 42.667 42.667 23.552 0 42.667-19.093 42.667-42.667 0-23.552-19.115-42.667-42.667-42.667zM682.667 341.334c-23.573 0-42.667 19.115-42.667 42.667 0 23.573 19.093 42.667 42.667 42.667 23.552 0 42.667-19.093 42.667-42.667 0-23.552-19.115-42.667-42.667-42.667zM810.667 170.667c-23.573 0-42.667 19.115-42.667 42.667 0 23.573 19.093 42.667 42.667 42.667 23.552 0 42.667-19.093 42.667-42.667 0-23.552-19.115-42.667-42.667-42.667zM810.667 341.334c-23.573 0-42.667 19.115-42.667 42.667 0 23.573 19.093 42.667 42.667 42.667 23.552 0 42.667-19.093 42.667-42.667 0-23.552-19.115-42.667-42.667-42.667zM853.333 655.104v-100.437h-256v170.667h256v-70.229z" />
<glyph unicode="&#xe9bd;" glyph-name="usim" data-tags="hardware, usim, chip, device" d="M853.333 810.667h-682.667c-23.573 0-42.667-19.093-42.667-42.667v-682.667c0-23.552 19.115-42.667 42.667-42.667h682.667c23.573 0 42.667 19.115 42.667 42.667v682.667c0 23.573-19.115 42.667-42.667 42.667zM426.667 384v-128h170.667v128h128v256h85.333v-341.333h-128v-128h-341.333v128h-128v341.333h85.333v-256zM383.979 469.334v170.667h85.333v-170.667h-85.333zM554.667 469.334v170.667h85.333v-170.667h-85.333z" />
<glyph unicode="&#xe9be;" glyph-name="lightbulb" data-tags="content, lightbulb, idea, add" d="M384 42.667c0-23.467 19.2-42.667 42.667-42.667h170.667c23.467 0 42.667 19.2 42.667 42.667v42.667h-256v-42.667zM512 853.334c-164.693 0-298.667-133.973-298.667-298.667 0-101.547 50.773-190.72 128-244.907v-139.093c0-23.467 19.2-42.667 42.667-42.667h256c23.467 0 42.667 19.2 42.667 42.667v139.093c77.227 54.187 128 143.36 128 244.907 0 164.693-133.973 298.667-298.667 298.667z" />
<glyph unicode="&#xe9bf;" glyph-name="lightbulb-o" data-tags="content, lightbulb-o, idea, add" d="M384 42.667c0-23.467 19.2-42.667 42.667-42.667h170.667c23.467 0 42.667 19.2 42.667 42.667v42.667h-256v-42.667zM512 853.334c-164.693 0-298.667-133.973-298.667-298.667 0-101.547 50.773-190.72 128-244.907v-139.093c0-23.467 19.2-42.667 42.667-42.667h256c23.467 0 42.667 19.2 42.667 42.667v139.093c77.227 54.187 128 143.36 128 244.907 0 164.693-133.973 298.667-298.667 298.667zM633.6 379.734l-36.267-25.6v-140.8h-170.667v140.8l-36.267 25.6c-57.6 40.107-91.733 105.387-91.733 174.933 0 117.76 95.573 213.333 213.333 213.333s213.333-95.573 213.333-213.333c0-69.547-34.133-134.827-91.733-174.933z" />
<glyph unicode="&#xe9c0;" glyph-name="link" data-tags="content, link, add" d="M341.333 469.334h341.333v-85.333h-341.333v85.333zM128 426.667c0 94.101 76.565 170.667 170.667 170.667h170.667v85.333h-170.667c-141.163 0-256-114.837-256-256s114.837-256 256-256h170.667v85.333h-170.667c-94.101 0-170.667 76.565-170.667 170.667zM725.333 682.667h-170.667v-85.333h170.667c94.101 0 170.667-76.565 170.667-170.667s-76.565-170.667-170.667-170.667h-170.667v-85.333h170.667c141.163 0 256 114.837 256 256s-114.837 256-256 256z" />
<glyph unicode="&#xe9c1;" glyph-name="minus-thin" data-tags="content, minus-thin, remove, minify, clear" d="M128 469.334h810.667v-42.667h-810.667v42.667z" />
<glyph unicode="&#xe9c2;" glyph-name="package" data-tags="content, package, archive, add" d="M128 810.667h768v-170.667h-768v170.667zM170.667 597.334h682.667v-554.667h-682.667v554.667zM405.333 469.334c-11.776 0-21.333-9.557-21.333-21.333v-64h256v64c0 11.776-9.557 21.333-21.333 21.333h-213.333z" />
<glyph unicode="&#xe9c3;" glyph-name="pen" data-tags="content, pen, pencil, create, add" d="M928.768 733.099l-110.336 110.315c-16.661 16.661-43.669 16.661-60.331 0l-75.435-75.435 170.667-170.667 75.435 75.435c16.64 16.661 16.661 43.691 0 60.352zM85.333 170.667v-170.667h170.667l531.819 531.819-170.667 170.667z" />
<glyph unicode="&#xe9c4;" glyph-name="pen-o" data-tags="content, pen-o, pencil, create, add" d="M908.501 712.854l-110.336 110.336c-16.661 16.661-43.669 16.661-60.331 0l-652.501-652.523v-170.667h170.667l652.501 652.501c16.661 16.661 16.661 43.691 0 60.352zM817.984 682.667l-60.331-60.352-49.984 49.984 60.331 60.352 49.984-49.984zM170.667 85.334v49.984l476.651 476.651 49.984-49.984-476.651-476.672h-49.984z" />
<glyph unicode="&#xe9c5;" glyph-name="plus-thin" data-tags="content, plus-thin, add" d="M938.581 469.334h-384v384h-42.667v-384h-384v-42.667h384v-384h42.667v384h384z" />
<glyph unicode="&#xe9c6;" glyph-name="radiobox-blank" data-tags="content, radiobox-blank, form" d="M512 853.334c-235.52 0-426.667-191.147-426.667-426.667s191.147-426.667 426.667-426.667 426.667 191.147 426.667 426.667-191.147 426.667-426.667 426.667zM512 85.334c-188.587 0-341.333 152.747-341.333 341.333s152.747 341.333 341.333 341.333 341.333-152.747 341.333-341.333-152.747-341.333-341.333-341.333z" />
<glyph unicode="&#xe9c7;" glyph-name="radiobox-checked" data-tags="content, radiobox-checked, form" d="M512 640c-117.76 0-213.333-95.573-213.333-213.333s95.573-213.333 213.333-213.333 213.333 95.573 213.333 213.333-95.573 213.333-213.333 213.333zM512 853.334c-235.52 0-426.667-191.147-426.667-426.667s191.147-426.667 426.667-426.667 426.667 191.147 426.667 426.667-191.147 426.667-426.667 426.667zM512 85.334c-188.587 0-341.333 152.747-341.333 341.333s152.747 341.333 341.333 341.333 341.333-152.747 341.333-341.333-152.747-341.333-341.333-341.333z" />
<glyph unicode="&#xe9c8;" glyph-name="redo" data-tags="content, redo, repeat, selection, clear" d="M170.667 384c0-188.587 152.747-341.333 341.333-341.333s341.333 152.747 341.333 341.333h-85.333c0-141.227-114.773-256-256-256s-256 114.773-256 256 114.773 256 256 256v-170.667l213.333 213.333-213.333 213.333v-170.667c-188.587 0-341.333-152.747-341.333-341.333z" />
<glyph unicode="&#xe9c9;" glyph-name="switch-off" data-tags="content, switch-off, toggle-off, form" d="M298.667 640c117.824 0 213.333-95.509 213.333-213.333s-95.509-213.333-213.333-213.333-213.333 95.509-213.333 213.333 95.509 213.333 213.333 213.333zM853.333 341.334h-256v170.667h256c47.125 0 85.333-38.208 85.333-85.333s-38.208-85.333-85.333-85.333zM298.667 554.667c-70.699 0-128-57.301-128-128s57.301-128 128-128 128 57.301 128 128-57.301 128-128 128z" />
<glyph unicode="&#xe9ca;" glyph-name="switch-on" data-tags="content, switch-on, toggle-on, form" d="M725.333 640c117.824 0 213.333-95.509 213.333-213.333s-95.509-213.333-213.333-213.333c-117.824 0-213.333 95.509-213.333 213.333s95.509 213.333 213.333 213.333zM170.667 341.334c-47.125 0-85.333 38.208-85.333 85.333s38.208 85.333 85.333 85.333h256v-170.667h-256z" />
<glyph unicode="&#xe9cb;" glyph-name="toggle-off" data-tags="content, toggle-off, switch-off, form" d="M341.419 170.667h341.333c141.163 0 256 114.837 256 256s-114.837 256-256 256h-341.333c-141.163 0-256-114.837-256-256s114.837-256 256-256zM682.752 640c117.632 0 213.333-95.701 213.333-213.333s-95.701-213.333-213.333-213.333h-200.128c69.099 45.888 114.795 124.331 114.795 213.333s-45.696 167.445-114.795 213.333h200.128zM341.419 640c117.632 0 213.333-95.701 213.333-213.333s-95.701-213.333-213.333-213.333-213.333 95.701-213.333 213.333 95.701 213.333 213.333 213.333z" />
<glyph unicode="&#xe9cc;" glyph-name="webcam" data-tags="hardware, webcam" d="M340.437 85.334h342.229v-85.333h-342.229v85.333zM618.667 512c0-35.346-28.654-64-64-64s-64 28.654-64 64c0 35.346 28.654 64 64 64s64-28.654 64-64zM512 853.334c-188.203 0-341.333-153.131-341.333-341.333s153.131-341.333 341.333-341.333c188.203 0 341.333 153.131 341.333 341.333s-153.131 341.333-341.333 341.333zM554.667 384c-70.699 0-128 57.301-128 128s57.301 128 128 128 128-57.301 128-128-57.301-128-128-128z" />
<glyph unicode="&#xe9cd;" glyph-name="toggle-on" data-tags="content, toggle-on, switch-on, form" d="M341.419 170.667h341.333c141.163 0 256 114.837 256 256s-114.837 256-256 256h-341.333c-141.163 0-256-114.837-256-256s114.837-256 256-256zM682.752 640c117.824 0 213.333-95.509 213.333-213.333s-95.509-213.333-213.333-213.333-213.333 95.509-213.333 213.333 95.509 213.333 213.333 213.333z" />
<glyph unicode="&#xe9ce;" glyph-name="projector" data-tags="hardware, projector" d="M725.333 768c-69.589 0-131.285-33.643-170.261-85.333h-427.072c-23.552 0-42.667-19.115-42.667-42.667v-469.333c0-23.552 19.115-42.667 42.667-42.667h85.333v-85.333h85.333v85.333h384v-85.333h85.333v85.333h85.333c23.552 0 42.667 19.115 42.667 42.667v256.555c26.667 35.605 42.667 79.637 42.667 127.445 0 117.632-95.701 213.333-213.333 213.333zM426.667 298.667h-213.333v85.333h213.333v-85.333zM426.667 426.667h-213.333v85.333h213.333v-85.333zM725.333 426.667c-70.592 0-128 57.408-128 128s57.408 128 128 128 128-57.408 128-128-57.408-128-128-128z" />
<glyph unicode="&#xe9cf;" glyph-name="presentation" data-tags="hardware, presentation, slide" d="M128 853.334h768v-85.333h-768v85.333zM298.667 554.667h85.333v-128h-85.333v128zM469.333 682.667h85.333v-256h-85.333v256zM640 597.334h85.333v-170.667h-85.333v170.667zM810.667 341.334h-597.333v384h-85.333v-426.667c0-23.552 19.115-42.667 42.667-42.667h298.667v-86.677l-134.443-104.533 55.552-64.789 121.557 93.525 121.557-93.525 55.552 64.789-134.443 104.533v86.677h298.667c23.552 0 42.667 19.115 42.667 42.667v426.667h-85.333v-384z" />
<glyph unicode="&#xe9d0;" glyph-name="plug" data-tags="hardware, plug, power" d="M682.667 640v170.667c0 23.552-19.115 42.667-42.667 42.667s-42.667-19.115-42.667-42.667v-170.667h-170.667v170.667c0 23.552-19.115 42.667-42.667 42.667s-42.667-19.115-42.667-42.667v-170.667h-170.667v-170.667c0-143.211 88.299-265.621 213.333-316.288v-153.045h256v153.045c125.035 50.667 213.333 173.077 213.333 316.288v170.667h-170.667z" />
<glyph unicode="&#xe9d1;" glyph-name="globus" data-tags="technology, globus, network" d="M512 853.334c-235.264 0-426.667-191.403-426.667-426.667s191.403-426.667 426.667-426.667 426.667 191.403 426.667 426.667-191.381 426.667-426.667 426.667zM850.389 469.334h-126.848c-7.317 126.016-45.803 214.912-86.592 274.667 113.792-44.971 197.696-149.269 213.44-274.667zM511.253 94.827c-37.611 31.68-114.581 116.821-125.781 289.173h252.821c-11.307-172.437-89.131-257.579-127.040-289.173zM385.472 469.334c11.2 172.523 88.32 257.685 125.739 289.195 37.909-31.595 115.755-116.715 127.083-289.195h-252.821zM385.835 743.552c-40.341-59.755-78.357-148.501-85.589-274.219h-126.613c15.701 124.949 99.029 228.971 212.203 274.219zM173.632 384h126.613c7.232-125.717 45.248-214.464 85.589-274.219-113.173 45.248-196.501 149.269-212.203 274.219zM636.928 109.334c40.768 59.755 79.275 148.651 86.592 274.667h126.848c-15.723-125.397-99.627-229.696-213.44-274.667z" />
<glyph unicode="&#xe9d2;" glyph-name="undo" data-tags="content, undo, selection" d="M512 725.334v170.667l-213.333-213.333 213.333-213.333v170.667c141.227 0 256-114.773 256-256s-114.773-256-256-256-256 114.773-256 256h-85.333c0-188.587 152.747-341.333 341.333-341.333s341.333 152.747 341.333 341.333-152.747 341.333-341.333 341.333z" />
<glyph unicode="&#xe9d3;" glyph-name="call" data-tags="communication, call, phone" d="M282.453 478.294c61.44-120.747 160.427-219.307 281.173-281.173l93.867 93.867c11.52 11.52 28.587 15.36 43.52 10.24 47.787-15.787 99.413-24.32 152.32-24.32 23.467 0 42.667-19.2 42.667-42.667v-148.907c0-23.467-19.2-42.667-42.667-42.667-400.64 0-725.333 324.693-725.333 725.333 0 23.467 19.2 42.667 42.667 42.667h149.333c23.467 0 42.667-19.2 42.667-42.667 0-53.333 8.533-104.533 24.32-152.32 4.693-14.933 1.28-31.573-10.667-43.52l-93.867-93.867z" />
<glyph unicode="&#xe9d4;" glyph-name="call-made" data-tags="communication, call-made, phone" d="M170.667 810.667c-23.573 0-42.667-19.115-42.667-42.667 0-400.597 324.736-725.333 725.333-725.333 23.573 0 42.667 19.115 42.667 42.667v149.333c0 23.552-19.093 42.667-42.667 42.667-53.333 0-104.533 8.533-152.32 24.32-14.933 4.693-31.573 1.28-43.52-10.24l-93.867-93.867c-120.747 61.44-219.733 160-281.173 281.173l93.867 94.293c11.947 11.093 15.36 27.733 10.667 42.667-15.787 47.787-24.32 98.987-24.32 152.32 0 23.552-19.093 42.667-42.667 42.667h-149.333zM640 810.667v-64h149.333l-234.667-234.667 42.667-42.667 234.667 234.667v-149.333h64v256h-256z" />
<glyph unicode="&#xe9d5;" glyph-name="call-missed" data-tags="communication, call-missed, phone" d="M333.909 394.24c-19.2 26.581-36.48 54.635-51.456 84.053l93.867 93.867c11.947 11.947 15.36 28.587 10.667 43.52-15.787 47.787-24.32 98.987-24.32 152.32 0 23.467-19.2 42.667-42.667 42.667h-149.333c-23.467 0-42.667-19.2-42.667-42.667 0-163.157 53.867-313.728 144.789-434.88l61.12 61.12zM853.333 276.907c-52.907 0-104.533 8.533-152.32 24.32-14.933 5.12-32 1.28-43.52-10.24l-93.867-93.867c-47.552 24.363-91.413 54.72-131.157 89.685l463.531 463.531-60.331 60.331-707.669-707.669 60.331-60.331 183.424 183.424c128.085-113.963 296.619-183.424 481.579-183.424 23.467 0 42.667 19.2 42.667 42.667v148.907c0 23.467-19.2 42.667-42.667 42.667z" />
<glyph unicode="&#xe9d6;" glyph-name="call-received" data-tags="communication, call-received, phone" d="M853.333 277.334c-53.333 0-104.533 8.533-152.32 24.32-14.933 4.693-31.573 1.28-43.52-10.24l-93.867-93.867c-120.747 61.44-219.733 160-281.173 281.173l93.867 94.293c11.947 11.093 15.36 27.733 10.667 42.667-15.787 47.787-24.32 98.987-24.32 152.32 0 23.552-19.093 42.667-42.667 42.667h-149.333c-23.573 0-42.667-19.115-42.667-42.667 0-400.597 324.736-725.333 725.333-725.333 23.573 0 42.667 19.115 42.667 42.667v149.333c0 23.552-19.093 42.667-42.667 42.667zM810.667 533.334h-149.333l234.667 234.667-42.667 42.667-234.667-234.667v149.333h-64v-256h256z" />
<glyph unicode="&#xe9d7;" glyph-name="comment" data-tags="communication, comment, bubble, chat" d="M896 810.667h-768c-23.552 0-42.667-19.115-42.667-42.667v-597.333c0-23.552 19.115-42.667 42.667-42.667h298.667l85.333-128 85.333 128h298.667c23.552 0 42.667 19.115 42.667 42.667v597.333c0 23.552-19.115 42.667-42.667 42.667zM768 341.334h-512v85.333h512v-85.333zM768 512h-512v85.333h512v-85.333z" />
<glyph unicode="&#xe9d8;" glyph-name="comment-o" data-tags="communication, comment-o, bubble, chat" d="M896 810.667h-768c-23.552 0-42.667-19.115-42.667-42.667v-597.333c0-23.552 19.115-42.667 42.667-42.667h298.667l85.333-128 85.333 128h298.667c23.552 0 42.667 19.115 42.667 42.667v597.333c0 23.552-19.115 42.667-42.667 42.667zM853.333 213.334h-298.667l-42.667-85.333-42.667 85.333h-298.667v512h682.667v-512zM256 597.334h512v-85.333h-512v85.333zM256 426.667h512v-85.333h-512v85.333z" />
<glyph unicode="&#xe9d9;" glyph-name="filter" data-tags="action, filter, funnel, control" d="M938.667 810.667c0 22.357-17.259 40.469-39.147 42.304v0.363h-771.52c-23.573 0-42.688-19.115-42.688-42.667 0-11.563 4.651-22.016 12.117-29.696h-0.043l0.384-0.405c0.021-0.021 0.064-0.064 0.085-0.085l328.939-353.792v-426.667l170.731 85.333v341.333l329.024 354.304c7.467 7.659 12.117 18.112 12.117 29.675z" />
<glyph unicode="&#xe9da;" glyph-name="crown" data-tags="communication, crown, winner, feed" d="M213.248 256l-85.333 469.333 234.667-298.667 149.333 298.667 149.333-298.667 234.667 298.667-85.333-469.333h-597.333zM810.581 128c0-23.552-19.093-42.667-42.667-42.667h-512c-23.573 0-42.667 19.115-42.667 42.667v85.333h597.333v-85.333z" />
<glyph unicode="&#xe9db;" glyph-name="browser" data-tags="technology, browser, data" d="M810.667 597.334c0-23.564-19.103-42.667-42.667-42.667s-42.667 19.103-42.667 42.667c0 23.564 19.103 42.667 42.667 42.667s42.667-19.103 42.667-42.667zM682.667 597.334c0-23.564-19.103-42.667-42.667-42.667s-42.667 19.103-42.667 42.667c0 23.564 19.103 42.667 42.667 42.667s42.667-19.103 42.667-42.667zM554.667 597.334c0-23.564-19.103-42.667-42.667-42.667s-42.667 19.103-42.667 42.667c0 23.564 19.103 42.667 42.667 42.667s42.667-19.103 42.667-42.667zM896 768h-768c-23.552 0-42.667-19.115-42.667-42.667v-640c0-23.552 19.115-42.667 42.667-42.667h768c23.552 0 42.667 19.115 42.667 42.667v640c0 23.552-19.093 42.667-42.667 42.667zM853.333 128h-682.667v554.667h682.667v-554.667z" />
<glyph unicode="&#xe9dc;" glyph-name="browser-text" data-tags="technology, browser-text" d="M810.667 597.334c0-23.564-19.103-42.667-42.667-42.667s-42.667 19.103-42.667 42.667c0 23.564 19.103 42.667 42.667 42.667s42.667-19.103 42.667-42.667zM682.667 597.334c0-23.564-19.103-42.667-42.667-42.667s-42.667 19.103-42.667 42.667c0 23.564 19.103 42.667 42.667 42.667s42.667-19.103 42.667-42.667zM554.667 597.334c0-23.564-19.103-42.667-42.667-42.667s-42.667 19.103-42.667 42.667c0 23.564 19.103 42.667 42.667 42.667s42.667-19.103 42.667-42.667zM896 768h-768c-23.552 0-42.667-19.115-42.667-42.667v-640c0-23.552 19.115-42.667 42.667-42.667h768c23.552 0 42.667 19.115 42.667 42.667v640c0 23.552-19.093 42.667-42.667 42.667zM853.333 128h-682.667v554.667h682.667v-554.667zM255.125 298.667h512.896v-85.333h-512.896v85.333zM255.125 426.667h512.896v-85.333h-512.896v85.333z" />
<glyph unicode="&#xe9dd;" glyph-name="emoticon" data-tags="communication, emoticon, feed" d="M512 853.334c-235.264 0-426.667-191.403-426.667-426.667s191.403-426.667 426.667-426.667 426.667 191.403 426.667 426.667-191.403 426.667-426.667 426.667zM661.333 597.334c35.349 0 64-28.651 64-64s-28.651-64-64-64-64 28.651-64 64 28.651 64 64 64zM362.667 597.334c35.349 0 64-28.651 64-64s-28.651-64-64-64-64 28.651-64 64 28.651 64 64 64zM516.693 192c-99.413 0-183.893 62.293-218.027 149.333h436.053c-34.56-87.040-118.613-149.333-218.027-149.333z" />
<glyph unicode="&#xe9de;" glyph-name="emoticon-bad" data-tags="communication, emoticon-bad, feed" d="M512 853.334c-235.264 0-426.667-191.403-426.667-426.667s191.403-426.667 426.667-426.667 426.667 191.403 426.667 426.667-191.403 426.667-426.667 426.667zM661.333 597.334c35.349 0 64-28.651 64-64s-28.651-64-64-64-64 28.651-64 64 28.651 64 64 64zM362.667 597.334c35.349 0 64-28.651 64-64s-28.651-64-64-64-64 28.651-64 64 28.651 64 64 64zM298.667 192c34.133 87.040 118.613 149.333 218.027 149.333s183.467-62.293 218.027-149.333h-436.053z" />
<glyph unicode="&#xe9df;" glyph-name="emoticon-bad-o" data-tags="communication, emoticon-bad-o, feed" d="M512-0c-235.264 0-426.667 191.403-426.667 426.667s191.403 426.667 426.667 426.667 426.667-191.403 426.667-426.667-191.403-426.667-426.667-426.667zM512 768c-188.203 0-341.333-153.131-341.333-341.333s153.131-341.333 341.333-341.333 341.333 153.131 341.333 341.333-153.131 341.333-341.333 341.333zM516.693 341.334c-99.413 0-183.893-62.293-218.027-149.333h436.053c-34.56 87.040-118.613 149.333-218.027 149.333zM362.667 469.334c-35.349 0-64 28.651-64 64s28.651 64 64 64 64-28.651 64-64-28.651-64-64-64zM661.333 469.334c-35.349 0-64 28.651-64 64s28.651 64 64 64 64-28.651 64-64-28.651-64-64-64z" />
<glyph unicode="&#xe9e0;" glyph-name="emoticon-cool" data-tags="communication, emoticon-cool, feed" d="M512 853.334c-235.648 0-426.667-191.019-426.667-426.667 0-235.627 191.019-426.667 426.667-426.667s426.667 191.040 426.667 426.667c0 235.648-191.019 426.667-426.667 426.667zM717.205 273.6c-3.072-4.203-76.181-102.933-205.205-102.933-126.549 0-201.664 98.219-204.8 102.4-14.144 18.859-10.325 45.611 8.512 59.733 18.837 14.144 45.461 10.325 59.605-8.363 1.109-1.408 53.995-68.437 136.661-68.437 84.629 0 135.637 67.051 136.128 67.733 13.845 19.072 40.512 23.275 59.605 9.472 19.072-13.845 23.339-40.512 9.493-59.605zM661.333 405.334c-58.88 0-117.333 47.787-117.333 106.667h-64c0-58.88-58.453-106.667-117.333-106.667s-192 47.787-192 106.667v85.333h682.667v-85.333c0-58.88-133.12-106.667-192-106.667z" />
</font>
</defs>
</svg>
